XXX Videók Sis Wants A Taste - Audrey Royal

tkt55

Adminisztrátor
Tag
Adminisztrátor
Csatlakozás
2015.07.17.
Üzenetek
2,220
Reakció pontszám
0
Pontok
36
Hely
Barcs
Webhely
androware.hu
Offline
Sis Wants A Taste - Audrey Royal



Featuring:


General
Complete name : Sis Wants A Taste - Audrey Royal.mp4
Format : MPEG-4
Format profile : Base Media / Version 2
Codec ID : mp42 (isom/iso2/avc1/mp41)
File size : 110 MiB
Duration : 17 min 53 s
Overall bit rate : 862 kb/s
Frame rate : 30.000 FPS
Encoded date : 2022-01-12 05:07:09 UTC
Tagged date : 2022-01-12 05:07:09 UTC
Writing application : HandBrake 1.3.3 2020061500

Video
ID : 1
Format : AVC
Format/Info : Advanced Video Codec
Format profile : Main@L3.1
Format settings : CABAC / 4 Ref Frames
Format settings, CABAC : Yes
Format settings, Reference fra : 4 frames
Codec ID : avc1
Codec ID/Info : Advanced Video Coding
Duration : 17 min 53 s
Bit rate : 757 kb/s
Width : 720 pixels
Height : 480 pixels
Display aspect ratio : 16:9
Original display aspect ratio : 16:9
Frame rate mode : Constant
Frame rate : 30.000 FPS
Color space : YUV
Chroma subsampling : 4:2:0
Bit depth : 8 bits
Scan type : Progressive
Bits/(Pixel*Frame) : 0.073
Stream size : 96.8 MiB (88%)
Writing library : x264 core 155 r2917 0a84d98
Encoding settings : cabac=1 / ref=2 / deblock=1:0:0 / analyse=0x1:0x111 / me=hex / subme=6 / psy=1 / psy_rd=1.00:0.00 / mixed_ref=1 / me_range=16 / chroma_me=1 / trellis=1 / 8x8dct=0 / cqm=0 / deadzone=21,11 / fast_pskip=1 / chroma_qp_offset=-2 / threads=4 / lookahead_threads=1 / sliced_threads=0 / nr=0 / decimate=1 / interlaced=0 / bluray_compat=0 / constrained_intra=0 / bframes=3 / b_pyramid=2 / b_adapt=1 / b_bias=0 / direct=1 / weightb=1 / open_gop=0 / weightp=1 / keyint=60 / keyint_min=30 / scenecut=40 / intra_refresh=0 / rc_lookahead=30 / rc=crf / mbtree=1 / crf=22.0 / qcomp=0.60 / qpmin=0 / qpmax=69 / qpstep=4 / vbv_maxrate=800 / vbv_bufsize=2400 / crf_max=0.0 / nal_hrd=none / filler=0 / ip_ratio=1.40 / aq=1:1.00
Encoded date : 2022-01-12 05:07:09 UTC
Tagged date : 2022-01-12 05:07:09 UTC
Color range : Limited
Color primaries : BT.709
Transfer characteristics : BT.709
Matrix coefficients : BT.709
Codec configuration box : avcC

Audio
ID : 2
Format : AAC LC
Format/Info : Advanced Audio Codec Low Complexity
Codec ID : mp4a-40-2
Duration : 17 min 53 s
Bit rate mode : Constant
Bit rate : 96.0 kb/s
Channel(s) : 2 channels
Channel layout : L R
Sampling rate : 44.1 kHz
Frame rate : 43.066 FPS (1024 SPF)
Compression mode : Lossy
Stream size : 12.3 MiB (11%)
Title : Stereo / Stereo
Default : Yes
Alternate group : 1
Encoded date : 2022-01-12 05:07:09 UTC
Tagged date : 2022-01-12 05:07:09 UTC


datafree.png

Code:
https://data.hu/get/14247233/Sis_Wants_A_Taste_-_Audrey_Royal.zip?pid=1538548797

online.png

Code:
https://videa.hu/videok/felnott/sis-wants-a-taste-audrey-brattysisters-teen-hs66hXif3PSyogm5
 
Top