XXX Videók Nobody Wants To Fuck A Virgin Stepbro - Renee Rose

tkt55

Adminisztrátor
Tag
Adminisztrátor
Csatlakozás
2015.07.17.
Üzenetek
2,220
Reakció pontszám
0
Pontok
36
Hely
Barcs
Webhely
androware.hu
Offline
Nobody Wants To Fuck A Virgin Stepbro - Renee Rose



Featuring:




General
Complete name : Nobody Wants To Fuck A Virgin Stepbro - Renee Rose.mp4
Format : MPEG-4
Format profile : Base Media
Codec ID : isom (isom/iso2/avc1/mp41)
File size : 245 MiB
Duration : 23 min 1 s
Overall bit rate : 1 485 kb/s
Frame rate : 60.000 FPS
Movie name : [XXXClub.to]BrattySis.24.05.31.Renee.Rose.Nobody.Wants.To.Fuck.A.Virgin.Stepbro.XXX.480p.MP4-XXX[XC]
Writing application : Lavf58.76.100
Comment : [XXXClub.to]BrattySis.24.05.31.Renee.Rose.Nobody.Wants.To.Fuck.A.Virgin.Stepbro.XXX.480p.MP4-XXX[XC]

Video
ID : 1
Format : AVC
Format/Info : Advanced Video Codec
Format profile : High@L3.1
Format settings : CABAC / 4 Ref Frames
Format settings, CABAC : Yes
Format settings, Reference fra : 4 frames
Codec ID : avc1
Codec ID/Info : Advanced Video Coding
Duration : 23 min 1 s
Bit rate : 1 345 kb/s
Width : 854 pixels
Height : 480 pixels
Display aspect ratio : 16:9
Frame rate mode : Constant
Frame rate : 60.000 FPS
Color space : YUV
Chroma subsampling : 4:2:0
Bit depth : 8 bits
Scan type : Progressive
Bits/(Pixel*Frame) : 0.055
Stream size : 221 MiB (91%)
Writing library : x264 core 163 r3060 5db6aa6
Encoding settings : cabac=1 / ref=3 / deblock=1:0:0 / analyse=0x3:0x113 / me=hex / subme=7 / psy=1 / psy_rd=1.00:0.00 / mixed_ref=1 / me_range=16 / chroma_me=1 / trellis=0 / 8x8dct=1 / cqm=0 / deadzone=21,11 / fast_pskip=1 / chroma_qp_offset=-2 / threads=15 / lookahead_threads=2 / sliced_threads=0 / nr=0 / decimate=1 / interlaced=0 / bluray_compat=0 / constrained_intra=0 / bframes=8 / b_pyramid=2 / b_adapt=1 / b_bias=0 / direct=1 / weightb=1 / open_gop=0 / weightp=2 / keyint=50 / keyint_min=5 / scenecut=40 / intra_refresh=0 / rc_lookahead=40 / rc=crf / mbtree=1 / crf=22.0 / qcomp=0.60 / qpmin=0 / qpmax=69 / qpstep=4 / ip_ratio=1.40 / aq=1:1.00
Codec configuration box : avcC

Audio
ID : 2
Format : AAC LC
Format/Info : Advanced Audio Codec Low Complexity
Codec ID : mp4a-40-2
Duration : 23 min 1 s
Source duration : 23 min 1 s
Bit rate mode : Constant
Bit rate : 128 kb/s
Channel(s) : 2 channels
Channel layout : L R
Sampling rate : 44.1 kHz
Frame rate : 43.066 FPS (1024 SPF)
Compression mode : Lossy
Stream size : 21.1 MiB (9%)
Source stream size : 21.1 MiB (9%)
Default : Yes
Alternate group : 1
mdhd_Duration : 1381146



datafree.png

Code:
https://data.hu/get/14247248/Nobody_Wants_To_Fuck_A_Virgin_Stepbro_-_Renee_Rose.001?pid=1538548797
https://data.hu/get/14247247/Nobody_Wants_To_Fuck_A_Virgin_Stepbro_-_Renee_Rose.002?pid=1538548797
https://data.hu/get/14247250/Nobody_Wants_To_Fuck_A_Virgin_Stepbro_-_Renee_Rose.003?pid=1538548797
https://data.hu/get/14247246/Nobody_Wants_To_Fuck_A_Virgin_Stepbro_-_Renee_Rose.crc?pid=1538548797

datapremium.png

Code:
https://data.hu/get/14247249/Nobody_Wants_To_Fuck_A_Virgin_Stepbro_-_Renee_Rose.zip?pid=1538548797

online.png

Code:
https://videa.hu/videok/felnott/nobody-wants-to-fuck-a-brattysisters-teen-Vuy9IWWFKev96Kk6
 
Top