XXX Filmek Czech Wife Swap 11

tkt55

Adminisztrátor
Tag
Adminisztrátor
Csatlakozás
2015.07.17.
Üzenetek
2,220
Reakció pontszám
0
Pontok
36
Hely
Barcs
Webhely
androware.hu
Offline
Czech Wife Swap 11 XXX.DVDRip




General
Complete name : Czech Wife Swap 11.mp4
Format : MPEG-4
Format profile : Base Media
Codec ID : isom (isom/iso2/mp41)
File size : 2.17 GiB
Duration : 2 h 9 min
Overall bit rate mode : Constant
Overall bit rate : 2 407 kb/s
Writing application : Lavf56.15.102

Video
ID : 1
Format : MPEG-4 Visual
Format profile : Simple@L1
Format settings, BVOP : No
Format settings, QPel : No
Format settings, GMC : No warppoints
Format settings, Matrix : Default (H.263)
Codec ID : mp4v-20
Duration : 2 h 9 min
Bit rate mode : Constant
Bit rate : 2 306 kb/s
Width : 854 pixels
Height : 480 pixels
Display aspect ratio : 16:9
Frame rate mode : Constant
Frame rate : 25.000 FPS
Color space : YUV
Chroma subsampling : 4:2:0
Bit depth : 8 bits
Scan type : Progressive
Compression mode : Lossy
Bits/(Pixel*Frame) : 0.225
Stream size : 2.08 GiB (96%)
Writing library : Lavc56.13.100

Audio
ID : 2
Format : AAC LC
Format/Info : Advanced Audio Codec Low Complexity
Codec ID : mp4a-40-2
Duration : 2 h 9 min
Bit rate mode : Constant
Bit rate : 96.0 kb/s
Channel(s) : 2 channels
Channel layout : L R
Sampling rate : 44.1 kHz
Frame rate : 43.066 FPS (1024 SPF)
Compression mode : Lossy
Stream size : 88.7 MiB (4%)
Default : Yes
Alternate group : 1


Code:
https://mega.nz/#!rYthRQgI!aeENzSZgaww-HEJZg220_6Xrq6RStEmXKmHyt-Qknk0


Code:
https://data.hu/get/12870663/Czech_AV_-_Czech_Wife_Swap_11.001?pid=1538548797
https://data.hu/get/12870662/Czech_AV_-_Czech_Wife_Swap_11.002?pid=1538548797
https://data.hu/get/12870670/Czech_AV_-_Czech_Wife_Swap_11.003?pid=1538548797
https://data.hu/get/12870665/Czech_AV_-_Czech_Wife_Swap_11.004?pid=1538548797
https://data.hu/get/12870666/Czech_AV_-_Czech_Wife_Swap_11.005?pid=1538548797
https://data.hu/get/12870668/Czech_AV_-_Czech_Wife_Swap_11.006?pid=1538548797
https://data.hu/get/12870667/Czech_AV_-_Czech_Wife_Swap_11.crc?pid=1538548797


Code:
https://data.hu/get/12870664/Czech_AV_-_Czech_Wife_Swap_11.zip?pid=1538548797


Code:
https://videa.hu/letoltes/QbP6jEZolPqC6ZJN


Code:
https://videa.hu/videok/felnott/czech-wife-swap-11.mp4-QbP6jEZolPqC6ZJN
 
Top