XXX Filmek Czech Wife Swap 03

tkt55

Adminisztrátor
Tag
Adminisztrátor
Csatlakozás
2015.07.17.
Üzenetek
2,220
Reakció pontszám
0
Pontok
36
Hely
Barcs
Webhely
androware.hu
Offline
Czech Wife Swap 3 XXX.DVDRip




General
Complete name : Czech Wife Swap 3.mp4
Format : MPEG-4
Format profile : Base Media
Codec ID : isom (isom/iso2/mp41)
File size : 1.38 GiB
Duration : 1 h 22 min
Overall bit rate mode : Constant
Overall bit rate : 2 407 kb/s
Writing application : Lavf56.15.102

Video
ID : 1
Format : MPEG-4 Visual
Format profile : Simple@L1
Format settings, BVOP : No
Format settings, QPel : No
Format settings, GMC : No warppoints
Format settings, Matrix : Default (H.263)
Codec ID : mp4v-20
Duration : 1 h 22 min
Bit rate mode : Constant
Bit rate : 2 306 kb/s
Width : 854 pixels
Height : 480 pixels
Display aspect ratio : 16:9
Frame rate mode : Constant
Frame rate : 25.000 FPS
Color space : YUV
Chroma subsampling : 4:2:0
Bit depth : 8 bits
Scan type : Progressive
Compression mode : Lossy
Bits/(Pixel*Frame) : 0.225
Stream size : 1.33 GiB (96%)
Writing library : Lavc56.13.100

Audio
ID : 2
Format : AAC LC
Format/Info : Advanced Audio Codec Low Complexity
Codec ID : mp4a-40-2
Duration : 1 h 22 min
Bit rate mode : Constant
Bit rate : 96.0 kb/s
Channel(s) : 2 channels
Channel layout : L R
Sampling rate : 44.1 kHz
Frame rate : 43.066 FPS (1024 SPF)
Compression mode : Lossy
Stream size : 56.5 MiB (4%)
Default : Yes
Alternate group : 1



Code:
https://mega.nz/#!eNFGBaza!gwP8No-u7f0gQlbuka-cLx7TPrm2UOruQAcaqcyxbpA


Code:
https://data.hu/get/12762735/Czech_Wife_Swap_3.001
https://data.hu/get/12762742/Czech_Wife_Swap_3.002
https://data.hu/get/12762738/Czech_Wife_Swap_3.003
https://data.hu/get/12762741/Czech_Wife_Swap_3.004
https://data.hu/get/12762743/Czech_Wife_Swap_3.005
https://data.hu/get/12762744/Czech_Wife_Swap_3.006
https://data.hu/get/12762737/Czech_Wife_Swap_3.007
https://data.hu/get/12762739/Czech_Wife_Swap_3.008
https://data.hu/get/12762740/Czech_Wife_Swap_3.crc


Code:
https://data.hu/get/12762736/Czech_Wife_Swap_3.zip


Code:
https://videa.hu/letoltes/95ZuVwRjFKIx1wIO



Code:
https://videa.hu/videok/felnott/czech-wife-swap-3.mp4-blonde-czechav.com-czechwifeswap.com-95ZuVwRjFKIx1wIO
 
Top