XXX Filmek Czech Wife Swap 02

tkt55

Adminisztrátor
Tag
Adminisztrátor
Csatlakozás
2015.07.17.
Üzenetek
2,220
Reakció pontszám
0
Pontok
36
Hely
Barcs
Webhely
androware.hu
Offline
Czech Wife Swap 02 XXX.DVDRip



General
Complete name : Czech Wife Swap 2.mp4
Format : MPEG-4
Format profile : Base Media
Codec ID : isom (isom/iso2/mp41)
File size : 2.75 GiB
Duration : 2 h 55 min
Overall bit rate mode : Variable
Overall bit rate : 2 235 kb/s
Writing application : Lavf56.15.102

Video
ID : 1
Format : MPEG-4 Visual
Format profile : Simple@L1
Format settings, BVOP : No
Format settings, QPel : No
Format settings, GMC : No warppoints
Format settings, Matrix : Default (H.263)
Codec ID : mp4v-20
Duration : 2 h 55 min
Bit rate mode : Variable
Bit rate : 2 134 kb/s
Maximum bit rate : 2 306 kb/s
Width : 854 pixels
Height : 480 pixels
Display aspect ratio : 16:9
Frame rate mode : Constant
Frame rate : 25.000 FPS
Color space : YUV
Chroma subsampling : 4:2:0
Bit depth : 8 bits
Scan type : Progressive
Compression mode : Lossy
Bits/(Pixel*Frame) : 0.208
Stream size : 2.62 GiB (95%)
Writing library : Lavc56.13.100

Audio
ID : 2
Format : AAC LC
Format/Info : Advanced Audio Codec Low Complexity
Codec ID : mp4a-40-2
Duration : 2 h 55 min
Bit rate mode : Constant
Bit rate : 96.0 kb/s
Channel(s) : 2 channels
Channel layout : L R
Sampling rate : 44.1 kHz
Frame rate : 43.066 FPS (1024 SPF)
Compression mode : Lossy
Stream size : 121 MiB (4%)
Default : Yes
Alternate group : 1


Code:
http://www.xdisk.cz/cs/download.php?id=F1D17DE61


Code:
https://mega.nz/#!bMVEkK4D!vgTY7QjIqMcnxGSh0owKUEu8tF-OX0WlaoWlr2ZrRsw


Code:
https://data.hu/get/12762714/Czech_Wife_Swap_2.001
https://data.hu/get/12762705/Czech_Wife_Swap_2.002
https://data.hu/get/12762708/Czech_Wife_Swap_2.003
https://data.hu/get/12762709/Czech_Wife_Swap_2.004
https://data.hu/get/12762718/Czech_Wife_Swap_2.005
https://data.hu/get/12762712/Czech_Wife_Swap_2.006
https://data.hu/get/12762707/Czech_Wife_Swap_2.007
https://data.hu/get/12762713/Czech_Wife_Swap_2.008
https://data.hu/get/12762719/Czech_Wife_Swap_2.009
https://data.hu/get/12762717/Czech_Wife_Swap_2.010
https://data.hu/get/12762710/Czech_Wife_Swap_2.011
https://data.hu/get/12762706/Czech_Wife_Swap_2.012
https://data.hu/get/12762715/Czech_Wife_Swap_2.013
https://data.hu/get/12762704/Czech_Wife_Swap_2.014
https://data.hu/get/12762716/Czech_Wife_Swap_2.015
https://data.hu/get/12762711/Czech_Wife_Swap_2.crc


Code:
https://data.hu/get/12762693/Czech_Wife_Swap_2.001
https://data.hu/get/12762689/Czech_Wife_Swap_2.002
https://data.hu/get/12762690/Czech_Wife_Swap_2.003
https://data.hu/get/12762691/Czech_Wife_Swap_2.crc



Code:
https://videa.hu/letoltes/isQm11OtF6ZLRUYT
https://videa.hu/letoltes/0G3sSvdYBPMVHZZD
https://videa.hu/letoltes/Tdp8sMPr9kDbO6nD
https://videa.hu/letoltes/CnyBVTg5xXA8ObG8
https://videa.hu/letoltes/6AJFRdc7Vkh2z78B



Code:
https://videa.hu/videok/felnott/czech-wife-swap-2.1.mp4-blonde-czechav.com-czechwifeswap.com-isQm11OtF6ZLRUYT
https://videa.hu/videok/felnott/czech-wife-swap-2.2.mp4-blonde-czechav.com-czechwifeswap.com-0G3sSvdYBPMVHZZD
https://videa.hu/videok/felnott/czech-wife-swap-2.3.mp4-blonde-czechav.com-czechwifeswap.com-Tdp8sMPr9kDbO6nD
https://videa.hu/videok/felnott/czech-wife-swap-2.4.mp4-blonde-czechav.com-czechwifeswap.com-CnyBVTg5xXA8ObG8
https://videa.hu/videok/felnott/czech-wife-swap-2.5.mp4-blonde-czechav.com-czechwifeswap.com-6AJFRdc7Vkh2z78B

890 Mb méretű.


Code:
https://data.hu/get/12870704/Czech_AV_-_Czech_Wife_Swap_2.001?pid=1538548797
https://data.hu/get/12870700/Czech_AV_-_Czech_Wife_Swap_2.002?pid=1538548797
https://data.hu/get/12870699/Czech_AV_-_Czech_Wife_Swap_2.003?pid=1538548797
https://data.hu/get/12870701/Czech_AV_-_Czech_Wife_Swap_2.004?pid=1538548797
https://data.hu/get/12870702/Czech_AV_-_Czech_Wife_Swap_2.005?pid=1538548797
https://data.hu/get/12870698/Czech_AV_-_Czech_Wife_Swap_2.crc?pid=1538548797


Code:
https://data.hu/get/12870703/Czech_AV_-_Czech_Wife_Swap_2.zip?pid=1538548797


Code:
https://videa.hu/letoltes/I8VOgJGfaQart4wm

Össze rakott egyben.


Code:
[https://videa.hu/videok/felnott/czech-wife-swap-2.mp4-I8VOgJGfaQart4wm
 
Top