XXX Videók Power Play - Alexa Grace

tkt55

Adminisztrátor
Tag
Adminisztrátor
Csatlakozás
2015.07.17.
Üzenetek
2,220
Reakció pontszám
0
Pontok
36
Hely
Barcs
Webhely
androware.hu
Offline
Power Play - Alexa Grace



Featuring:


General
Complete name : Power Play - Alexa Grace.mp4
Format : MPEG-4
Format profile : Base Media
Codec ID : isom (isom/iso2/avc1/mp41)
File size : 175 MiB
Duration : 20 min 11 s
Overall bit rate mode : Variable
Overall bit rate : 1 212 kb/s
Frame rate : 30.000 FPS
Writing application : Lavf59.16.100

Video
ID : 1
Format : AVC
Format/Info : Advanced Video Codec
Format profile : High@L4
Format settings : CABAC / 5 Ref Frames
Format settings, CABAC : Yes
Format settings, Reference fra : 5 frames
Codec ID : avc1
Codec ID/Info : Advanced Video Coding
Duration : 20 min 11 s
Bit rate : 1 080 kb/s
Width : 1 280 pixels
Height : 720 pixels
Display aspect ratio : 16:9
Frame rate mode : Constant
Frame rate : 30.000 FPS
Color space : YUV
Chroma subsampling : 4:2:0
Bit depth : 8 bits
Scan type : Progressive
Bits/(Pixel*Frame) : 0.039
Stream size : 155 MiB (89%)
Writing library : x264 core 164 r3094 bfc87b7
Encoding settings : cabac=1 / ref=5 / deblock=1:-1:-1 / analyse=0x3:0x113 / me=hex / subme=8 / psy=1 / psy_rd=1.00:0.15 / mixed_ref=1 / me_range=16 / chroma_me=1 / trellis=2 / 8x8dct=1 / cqm=0 / deadzone=21,11 / fast_pskip=1 / chroma_qp_offset=-3 / threads=4 / lookahead_threads=1 / sliced_threads=0 / nr=0 / decimate=1 / interlaced=0 / bluray_compat=0 / constrained_intra=0 / bframes=3 / b_pyramid=2 / b_adapt=1 / b_bias=0 / direct=3 / weightb=1 / open_gop=0 / weightp=2 / keyint=250 / keyint_min=25 / scenecut=0 / intra_refresh=0 / rc_lookahead=50 / rc=abr / mbtree=1 / bitrate=1080 / ratetol=1.0 / qcomp=0.60 / qpmin=0 / qpmax=69 / qpstep=4 / ip_ratio=1.40 / aq=1:1.00
Color range : Limited
Color primaries : BT.709
Transfer characteristics : BT.709
Matrix coefficients : BT.709
Codec configuration box : avcC

Audio
ID : 2
Format : AAC LC
Format/Info : Advanced Audio Codec Low Complexity
Codec ID : mp4a-40-2
Duration : 20 min 11 s
Source duration : 20 min 11 s
Bit rate mode : Variable
Bit rate : 128 kb/s
Channel(s) : 2 channels
Channel layout : L R
Sampling rate : 44.1 kHz
Frame rate : 43.066 FPS (1024 SPF)
Compression mode : Lossy
Stream size : 18.4 MiB (10%)
Source stream size : 18.4 MiB (10%)
Default : Yes
Alternate group : 1


datafree.png

Code:
https://data.hu/get/14246850/Power_Play_-_Alexa_Grace.zip?pid=1538548797

online.png

Code:
https://videa.hu/videok/felnott/power-play-alexa-grace-brattysisters-teen-S70rLJpraWvUQUUI
 
Top