XXX Filmek Moms Bang Teens sorozat (Reality Kings)

tkt55

Adminisztrátor
Tag
Csatlakozás
2015.07.17.
Üzenetek
2,256
Reakció pontszám
0
Pontok
36
Hely
Barcs
Webhely
androware.hu
Offline
Moms Bang Teens 29 (2018)

Moms Bang Teens 29 (2018) XXX.DVDRip


Actors:


General
Complete name : Moms Bang Teens 29.mp4
Format : MPEG-4
Format profile : Base Media / Version 2
Codec ID : mp42 (mp42)
File size : 1.41 GiB
Duration : 3 h 3 min
Overall bit rate : 1 098 kb/s
Codirector : codirector
Production studio : studio
ContentType : Unknown Type
Encoded date : UTC 2018-10-19 06:55:40
Tagged date : UTC 2018-10-19 06:55:40

Video
ID : 1
Format : AVC
Format/Info : Advanced Video Codec
Format profile : Main@L4.1
Format settings : CABAC / 2 Ref Frames
Format settings, CABAC : Yes
Format settings, ReFrames : 2 frames
Muxing mode : Container profile=Baseline@3.0
Codec ID : avc1
Codec ID/Info : Advanced Video Coding
Duration : 3 h 3 min
Bit rate : 964 kb/s
Width : 768 pixels
Height : 432 pixels
Display aspect ratio : 16:9
Frame rate mode : Constant
Frame rate : 24.000 FPS
Color space : YUV
Chroma subsampling : 4:2:0
Bit depth : 8 bits
Scan type : Progressive
Bits/(Pixel*Frame) : 0.121
Stream size : 1.24 GiB (88%)
Language : English
Codec configuration box : avcC

Audio
ID : 2
Format : AAC LC
Format/Info : Advanced Audio Codec Low Complexity
Codec ID : mp4a-40-2
Duration : 3 h 3 min
Bit rate mode : Constant
Bit rate : 128 kb/s
Channel(s) : 2 channels
Channel layout : L R
Sampling rate : 48.0 kHz
Frame rate : 46.875 FPS (1024 SPF)
Compression mode : Lossy
Stream size : 168 MiB (12%)
Title : Stereo
Language : English
Default : Yes
Alternate group : 1

uki6lxc7vt.png

Code:
https://mega.nz/#!tyhjFaZD!o0hF5iuydWn9I2bexNsfxzy2wMmXyexj7EVG73uU0J4

datafree.png

Code:
https://data.hu/get/13066356/Moms_Bang_Teens_29.001?pid=1538548797
https://data.hu/get/13066365/Moms_Bang_Teens_29.002?pid=1538548797
https://data.hu/get/13066364/Moms_Bang_Teens_29.003?pid=1538548797
https://data.hu/get/13066361/Moms_Bang_Teens_29.004?pid=1538548797
https://data.hu/get/13066359/Moms_Bang_Teens_29.005?pid=1538548797
https://data.hu/get/13066360/Moms_Bang_Teens_29.006?pid=1538548797
https://data.hu/get/13066358/Moms_Bang_Teens_29.007?pid=1538548797
https://data.hu/get/13066357/Moms_Bang_Teens_29.008?pid=1538548797
https://data.hu/get/13066363/Moms_Bang_Teens_29.crc?pid=1538548797

datapremium.png

Code:
https://data.hu/get/13066362/Moms_Bang_Teens_29.zip?pid=1538548797

online.png

Code:
https://videa.hu/videok/felnott/moms-bang-teens-29.m-BLXKzoORsMG28ko9
 

tkt55

Adminisztrátor
Tag
Csatlakozás
2015.07.17.
Üzenetek
2,256
Reakció pontszám
0
Pontok
36
Hely
Barcs
Webhely
androware.hu
Offline
Moms Bang Teens 30 (2018)

Moms Bang Teens 30 (2018) XXX.DVDRip



Actors:



General
Complete name : Moms Bang Teens 30.mp4
Format : MPEG-4
Format profile : Base Media
Codec ID : isom (isom/iso2/avc1/mp41)
File size : 1.26 GiB
Duration : 3 h 20 min
Overall bit rate : 904 kb/s
Writing application : Lavf57.83.100

Video
ID : 1
Format : AVC
Format/Info : Advanced Video Codec
Format profile : High@L3.1
Format settings : CABAC / 5 Ref Frames
Format settings, CABAC : Yes
Format settings, ReFrames : 5 frames
Codec ID : avc1
Codec ID/Info : Advanced Video Coding
Duration : 3 h 20 min
Duration_LastFrame : 1 ms
Bit rate : 768 kb/s
Width : 720 pixels
Height : 480 pixels
Display aspect ratio : 16:9
Original display aspect ratio : 16:9
Frame rate mode : Constant
Frame rate : 29.970 (29970/1000) FPS
Standard : NTSC
Color space : YUV
Chroma subsampling : 4:2:0
Bit depth : 8 bits
Scan type : Progressive
Bits/(Pixel*Frame) : 0.074
Stream size : 1.08 GiB (85%)
Writing library : x264
Codec configuration box : avcC

Audio
ID : 2
Format : AAC LC
Format/Info : Advanced Audio Codec Low Complexity
Codec ID : mp4a-40-2
Duration : 3 h 20 min
Source duration : 3 h 20 min
Source_Duration_LastFrame : 2 ms
Bit rate mode : Constant
Bit rate : 128 kb/s
Channel(s) : 2 channels
Channel layout : L R
Sampling rate : 44.1 kHz
Frame rate : 43.066 FPS (1024 SPF)
Compression mode : Lossy
Stream size : 183 MiB (14%)
Source stream size : 183 MiB (14%)
Default : Yes
Alternate group : 1

uki6lxc7vt.png

Code:
https://mega.nz/#!SNd3SIBA!r0JuKMmgSsJrJSihIxVYrLnYBfNyfXYqr4eKo-Dujp0

datafree.png

Code:
https://data.hu/get/13066993/Moms_Bang_Teens_30.001?pid=1538548797
https://data.hu/get/13066996/Moms_Bang_Teens_30.002?pid=1538548797
https://data.hu/get/13066994/Moms_Bang_Teens_30.003?pid=1538548797
https://data.hu/get/13066998/Moms_Bang_Teens_30.004?pid=1538548797
https://data.hu/get/13066992/Moms_Bang_Teens_30.005?pid=1538548797
https://data.hu/get/13066997/Moms_Bang_Teens_30.006?pid=1538548797
https://data.hu/get/13067000/Moms_Bang_Teens_30.007?pid=1538548797
https://data.hu/get/13066999/Moms_Bang_Teens_30.crc?pid=1538548797

datapremium.png

Code:
https://data.hu/get/13066995/Moms_Bang_Teens_30.zip?pid=1538548797

online.png

Code:
https://videa.hu/videok/felnott/moms-bang-teens-30-V5gZA1kj85S3k9wr
 

tkt55

Adminisztrátor
Tag
Csatlakozás
2015.07.17.
Üzenetek
2,256
Reakció pontszám
0
Pontok
36
Hely
Barcs
Webhely
androware.hu
Offline
Moms Bang Teens 31 (2019)

Moms Bang Teens 31 (2019) XXX.DVDRip


Actors:


GeneralComplete name : Moms Bang Teens 31 XXX.mp4
Format profile : Base Media
Codec ID : isom (isom/iso2/avc1/mp41)
File size : 1.22 GiB
Duration : 3 h 33 min
Overall bit rate : 821 kb/s
Writing application : Lavf58.24.100


Video
ID : 1
Format : AVC
Format/Info : Advanced Video Codec
Format profile : High@L1.3
Format settings : CABAC / 4 Ref Frames
Format settings, CABAC : Yes
Format settings, ReFrames : 4 frames
Codec ID : avc1
Codec ID/Info : Advanced Video Coding
Duration : 3 h 33 min
Bit rate : 618 kb/s
Width : 360 pixels
Height : 240 pixels
Display aspect ratio : 16:9
Original display aspect rat : 16:9
Frame rate mode : Constant
Frame rate : 29.970 (29970/1000) FPS
Color space : YUV
Chroma subsampling : 4:2:0
Bit depth : 8 bits
Scan type : Progressive
Bits/(Pixel*Frame) : 0.239
Stream size : 943 MiB (75%)
Writing library : x264 core
Audio
ID : 2
Format : AAC LC
Format/Info : Advanced Audio Codec Low Complexity
Codec ID : mp4a-40-2
Duration : 3 h 33 min
Bit rate mode : Constant
Bit rate : 192 kb/s
Channel(s) : 2 channels
Channel layout : L R
Sampling rate : 44.1 kHz
Frame rate : 43.066 FPS (1024 SPF)
Compression mode : Lossy
Stream size : 297 MiB (24%)
Default : Yes
Alternate group : 1

uki6lxc7vt.png

Code:
https://mega.nz/#!ZrYDlSSD!yWluSrhKeeDXdDFy6Nz2AI3N-5AaUgju8VvMSsYQHr8

datafree.png

Code:
https://data.hu/get/13067004/Moms_Bang_Teens_31.001?pid=1538548797
https://data.hu/get/13067005/Moms_Bang_Teens_31.002?pid=1538548797
https://data.hu/get/13067007/Moms_Bang_Teens_31.003?pid=1538548797
https://data.hu/get/13067008/Moms_Bang_Teens_31.004?pid=1538548797
https://data.hu/get/13067006/Moms_Bang_Teens_31.005?pid=1538548797
https://data.hu/get/13067010/Moms_Bang_Teens_31.006?pid=1538548797
https://data.hu/get/13067001/Moms_Bang_Teens_31.007?pid=1538548797
https://data.hu/get/13067009/Moms_Bang_Teens_31.crc?pid=1538548797

datapremium.png

Code:
https://data.hu/get/13067003/Moms_Bang_Teens_31.zip?pid=1538548797

online.png

Code:
https://datoporn.co/2cl930vaddef
 

tkt55

Adminisztrátor
Tag
Csatlakozás
2015.07.17.
Üzenetek
2,256
Reakció pontszám
0
Pontok
36
Hely
Barcs
Webhely
androware.hu
Offline
Moms Bang Teens 32 (2019)

Moms Bang Teens 32 (2019) XXX.DVDRip


Actors:


General
Complete name : Moms Bang Teens 32.mp4
Format : MPEG-4
Format profile : Base Media
Codec ID : isom (isom/iso2/avc1/mp41)
File size : 2.03 GiB
Duration : 2 h 55 min
Overall bit rate : 1 661 kb/s
Writing application : Lavf56.15.102


Video
ID : 1
Format : AVC
Format/Info : Advanced Video Codec
Format profile : Baseline@L3
Format settings : 2 Ref Frames
Format settings, CABAC : No
Format settings, ReFrames : 2 frames
Codec ID : avc1
Codec ID/Info : Advanced Video Coding
Duration : 2 h 55 min
Bit rate : 1 553 kb/s
Width : 720 pixels
Height : 480 pixels
Display aspect ratio : 3:2
Frame rate mode : Constant
Frame rate : 29.970 (29970/1000) FPS
Standard : NTSC
Color space : YUV
Chroma subsampling : 4:2:0
Bit depth : 8 bits
Scan type : Progressive
Bits/(Pixel*Frame) : 0.150
Stream size : 1.91 GiB (94%)
Writing library : x264


Audio
ID : 2
Format : AAC LC
Format/Info : Advanced Audio Codec Low Complexity
Codec ID : mp4a-40-2
Duration : 2 h 55 min
Bit rate mode : Constant
Bit rate : 96.0 kb/s
Channel(s) : 2 channels
Channel layout : L R
Sampling rate : 44.1 kHz
Frame rate : 43.066 FPS (1024 SPF)
Compression mode : Lossy
Stream size : 120 MiB (6%)
Default : Yes
Alternate group : 1


uki6lxc7vt.png

Code:
https://mega.nz/#!02pHGa6Y!k-_nnDZTQH2GPwBBjKqnG8jHq0SiVwlJ4JwNR4-J-Xk

datafree.png

Code:
https://data.hu/get/13067033/Moms_Bang_Teens_32.001?pid=1538548797
https://data.hu/get/13067037/Moms_Bang_Teens_32.002?pid=1538548797
https://data.hu/get/13067032/Moms_Bang_Teens_32.003?pid=1538548797
https://data.hu/get/13067035/Moms_Bang_Teens_32.004?pid=1538548797
https://data.hu/get/13067036/Moms_Bang_Teens_32.005?pid=1538548797
https://data.hu/get/13067027/Moms_Bang_Teens_32.006?pid=1538548797
https://data.hu/get/13067028/Moms_Bang_Teens_32.007?pid=1538548797
https://data.hu/get/13067031/Moms_Bang_Teens_32.008?pid=1538548797
https://data.hu/get/13067030/Moms_Bang_Teens_32.009?pid=1538548797
https://data.hu/get/13067029/Moms_Bang_Teens_32.010?pid=1538548797
https://data.hu/get/13067034/Moms_Bang_Teens_32.011?pid=1538548797
https://data.hu/get/13067040/Moms_Bang_Teens_32.012?pid=1538548797
https://data.hu/get/13067039/Moms_Bang_Teens_32.013?pid=1538548797
https://data.hu/get/13067038/Moms_Bang_Teens_32.014?pid=1538548797
https://data.hu/get/13067041/Moms_Bang_Teens_32.crc?pid=1538548797

datapremium.png

Code:
https://data.hu/get/13067047/Moms_Bang_Teens_32.001?pid=1538548797
https://data.hu/get/13067048/Moms_Bang_Teens_32.002?pid=1538548797
https://data.hu/get/13067046/Moms_Bang_Teens_32.003?pid=1538548797
https://data.hu/get/13067049/Moms_Bang_Teens_32.crc?pid=1538548797

online.png

Code:
https://videa.hu/videok/felnott/moms-bang-teens-32-HWzbZ90Fk299r0gs
 

tkt55

Adminisztrátor
Tag
Csatlakozás
2015.07.17.
Üzenetek
2,256
Reakció pontszám
0
Pontok
36
Hely
Barcs
Webhely
androware.hu
Offline
Moms Bang Teens 33 (2019)

Moms Bang Teens 33 (2019) XXX.DVDRip


Actors:


General
Complete name : Moms Bang Teens 33 XXX.mp4
Format : MPEG-4
Format profile : Base Media
Codec ID : isom (isom/iso2/avc1/mp41)
File size : 1.30 GiB
Duration : 2 h 58 min
Overall bit rate : 1 048 kb/s
Writing application : Lavf57.66.104

Video
ID : 1
Format : AVC
Format/Info : Advanced Video Codec
Format profile : High@L3
Format settings : CABAC / 5 Ref Frames
Format settings, CABAC : Yes
Format settings, Reference : 5 frames
Codec ID : avc1
Codec ID/Info : Advanced Video Coding
Duration : 2 h 58 min
Bit rate : 915 kb/s
Width : 768 pixels
Height : 432 pixels
Display aspect ratio : 16:9
Frame rate mode : Variable
Frame rate : 23.936 FPS
Minimum frame rate : 2.672 FPS
Maximum frame rate : 24 000.000 FPS
Color space : YUV
Chroma subsampling : 4:2:0
Bit depth : 8 bits
Scan type : Progressive
Bits/(Pixel*Frame) : 0.115
Stream size : 1.14 GiB (87%)
Writing library : x264
Codec configuration box : avcC

Audio
ID : 2
Format : AAC LC
Format/Info : Advanced Audio Codec Low Complexity
Codec ID : mp4a-40-2
Duration : 2 h 58 min
Duration_LastFrame : 21 ms
Bit rate mode : Constant
Bit rate : 128 kb/s
Channel(s) : 2 channels
Channel layout : L R
Sampling rate : 48.0 kHz
Frame rate : 46.875 FPS (1024 SPF)
Compression mode : Lossy
Stream size : 163 MiB (12%)
Default : Yes
Alternate group : 1

uki6lxc7vt.png

Code:
https://mega.nz/#!W2oEFKKJ!JGusAaOV3w-VuzhuszTUTlDSIY3VoE7makt8oiavGoM

datafree.png

Code:
https://data.hu/get/13067335/Moms_Bang_Teens_33.001?pid=1538548797
https://data.hu/get/13067339/Moms_Bang_Teens_33.002?pid=1538548797
https://data.hu/get/13067332/Moms_Bang_Teens_33.003?pid=1538548797
https://data.hu/get/13067334/Moms_Bang_Teens_33.004?pid=1538548797
https://data.hu/get/13067333/Moms_Bang_Teens_33.005?pid=1538548797
https://data.hu/get/13067338/Moms_Bang_Teens_33.006?pid=1538548797
https://data.hu/get/13067337/Moms_Bang_Teens_33.007?pid=1538548797
https://data.hu/get/13067336/Moms_Bang_Teens_33.crc?pid=1538548797

datapremium.png

Code:
https://data.hu/get/13067331/Moms_Bang_Teens_33.zip?pid=1538548797

online.png

Code:
https://videa.hu/videok/felnott/moms-bang-teens-33-poYelllk9smpuho2
 

tkt55

Adminisztrátor
Tag
Csatlakozás
2015.07.17.
Üzenetek
2,256
Reakció pontszám
0
Pontok
36
Hely
Barcs
Webhely
androware.hu
Offline
Moms Bang Teens 34 (2019)

Moms Bang Teens 34 (2019) XXX.DVDRip


Actors:


General
Complete name : Moms Bang Teens 34.mp4
Format : MPEG-4
Format profile : Base Media
Codec ID : isom (isom/iso2/avc1/mp41)
File size : 265 MiB
Duration : 2 h 6 min
Overall bit rate mode : Variable
Overall bit rate : 294 kb/s
Writing application : Lavf58.0.100

Video
ID : 1
Format : AVC
Format/Info : Advanced Video Codec
Format profile : High@L2.1
Format settings : CABAC / 4 Ref Frames
Format settings, CABAC : Yes
Format settings, Reference : 4 frames
Codec ID : avc1
Codec ID/Info : Advanced Video Coding
Duration : 1 h 40 min
Bit rate : 279 kb/s
Width : 448 pixels
Height : 360 pixels
Display aspect ratio : 16:9
Frame rate mode : Constant
Frame rate : 30.000 FPS
Color space : YUV
Chroma subsampling : 4:2:0
Bit depth : 8 bits
Scan type : Progressive
Bits/(Pixel*Frame) : 0.058
Stream size : 201 MiB (76%)
Writing library : x264

Audio
ID : 2
Format : AAC LC
Format/Info : Advanced Audio Codec Low Complexity
Codec ID : mp4a-40-2
Duration : 2 h 6 min
Bit rate mode : Variable
Bit rate : 64.2 kb/s
Maximum bit rate : 96.0 kb/s
Channel(s) : 2 channels
Channel layout : L R
Sampling rate : 44.1 kHz
Frame rate : 43.066 FPS (1024 SPF)
Compression mode : Lossy
Stream size : 57.9 MiB (22%)
Default : Yes
Alternate group : 1

uki6lxc7vt.png

Code:
https://mega.nz/#!kiQj3AIZ!qgw-vAjcgIkFrLkCqwyvrVnnddsy7GmQlbuRf8YVFAA

datafree.png

Code:
https://data.hu/get/13067354/Moms_Bang_Teens_34.001?pid=1538548797
https://data.hu/get/13067349/Moms_Bang_Teens_34.002?pid=1538548797
https://data.hu/get/13067358/Moms_Bang_Teens_34.003?pid=1538548797
https://data.hu/get/13067357/Moms_Bang_Teens_34.004?pid=1538548797
https://data.hu/get/13067350/Moms_Bang_Teens_34.005?pid=1538548797
https://data.hu/get/13067352/Moms_Bang_Teens_34.006?pid=1538548797
https://data.hu/get/13067351/Moms_Bang_Teens_34.007?pid=1538548797
https://data.hu/get/13067356/Moms_Bang_Teens_34.008?pid=1538548797
https://data.hu/get/13067348/Moms_Bang_Teens_34.009?pid=1538548797
https://data.hu/get/13067355/Moms_Bang_Teens_34.crc?pid=1538548797

datapremium.png

Code:
https://data.hu/get/13067353/Moms_Bang_Teens_34.zip?pid=1538548797

online.png

Code:
https://videa.hu/videok/felnott/moms-bang-teens-34-fF3UFiBcisRRxmNT
 

tkt55

Adminisztrátor
Tag
Csatlakozás
2015.07.17.
Üzenetek
2,256
Reakció pontszám
0
Pontok
36
Hely
Barcs
Webhely
androware.hu
Offline
Moms Bang Teens 35 (2019)

Moms Bang Teens 35 (2019) XXX.DVDRip


Actors:


General
Complete name : Moms Bang Teens 35.mp4
Format : MPEG-4
Format profile : Base Media
Codec ID : isom (isom/iso2/avc1/mp41)
File size : 1.48 GiB
Duration : 4 h 56 min
Overall bit rate : 715 kb/s
Writing application : Lavf57.83.100

Video
ID : 1
Format : AVC
Format/Info : Advanced Video Codec
Format profile : High@L3
Format settings : CABAC / 5 Ref Frames
Format settings, CABAC : Yes
Format settings, Reference : 5 frames
Codec ID : avc1
Codec ID/Info : Advanced Video Coding
Duration : 3 h 33 min
Source duration : 3 h 33 min
Bit rate : 856 kb/s
Width : 768 pixels
Height : 432 pixels
Display aspect ratio : 16:9
Frame rate mode : Variable
Frame rate : 23.952 FPS
Minimum frame rate : 8.016 FPS
Maximum frame rate : 8 000.000 FPS
Color space : YUV
Chroma subsampling : 4:2:0
Bit depth : 8 bits
Scan type : Progressive
Bits/(Pixel*Frame) : 0.108
Stream size : 1.28 GiB (86%)
Source stream size : 1.28 GiB (86%)
Writing library : x264
Codec configuration box : avcC

Audio
ID : 2
Format : AAC LC
Format/Info : Advanced Audio Codec Low Complexity
Codec ID : mp4a-40-2
Duration : 4 h 56 min
Duration_LastFrame : 9 ms
Bit rate mode : Constant
Bit rate : 93.3 kb/s
Channel(s) : 2 channels
Channel layout : L R
Sampling rate : 48.0 kHz
Frame rate : 46.875 FPS (1024 SPF)
Compression mode : Lossy
Stream size : 198 MiB (13%)
Default : Yes
Alternate group : 1

uki6lxc7vt.png

Code:
https://mega.nz/#!Rig3zS5Z!MTUDeytdgt95kwFU-JkXXElHPodrP7Dy4J04wXQEzJI

datafree.png

Code:
https://data.hu/get/13067537/Moms_Bang_Teens_35.001?pid=1538548797
https://data.hu/get/13067535/Moms_Bang_Teens_35.002?pid=1538548797
https://data.hu/get/13067536/Moms_Bang_Teens_35.003?pid=1538548797
https://data.hu/get/13067529/Moms_Bang_Teens_35.004?pid=1538548797
https://data.hu/get/13067531/Moms_Bang_Teens_35.005?pid=1538548797
https://data.hu/get/13067533/Moms_Bang_Teens_35.006?pid=1538548797
https://data.hu/get/13067532/Moms_Bang_Teens_35.007?pid=1538548797
https://data.hu/get/13067530/Moms_Bang_Teens_35.008?pid=1538548797
https://data.hu/get/13067534/Moms_Bang_Teens_35.crc?pid=1538548797

datapremium.png

Code:
https://data.hu/get/13067538/Moms_Bang_Teens_35.zip?pid=1538548797

online.png

Code:
https://videa.hu/videok/felnott/moms-bang-teens-35-zDck21KZCthiWZe7
 

tkt55

Adminisztrátor
Tag
Csatlakozás
2015.07.17.
Üzenetek
2,256
Reakció pontszám
0
Pontok
36
Hely
Barcs
Webhely
androware.hu
Offline
Moms Bang Teens 36 (2020)

Moms Bang Teens 36 (2020) XXX.DVDRip


Actors:


General
Complete name : Moms Bang Teens 36.mp4
Format : MPEG-4
Format profile : Base Media
Codec ID : isom (isom/iso2/mp41)
File size : 2.80 GiB
Duration : 5 h 11 min
Overall bit rate mode : Variable
Overall bit rate : 1 289 kb/s
Writing application : Lavf56.15.102




Video
ID : 1
Format : MPEG-4 Visual
Format profile : Simple@L1
Format settings, BVOP : No
Format settings, QPel : No
Format settings, GMC : No warppoints
Format settings, Matrix : Default (H.263)
Codec ID : mp4v-20
Duration : 3 h 24 min
Bit rate mode : Constant
Bit rate : 1 866 kb/s
Width : 768 pixels
Height : 432 pixels
Display aspect ratio : 16:9
Frame rate mode : Constant
Frame rate : 25.000 FPS
Color space : YUV
Chroma subsampling : 4:2:0
Bit depth : 8 bits
Scan type : Progressive
Compression mode : Lossy
Bits/(Pixel*Frame) : 0.225
Stream size : 2.67 GiB (95%)
Writing library : Lavc56.13.100




Audio
ID : 2
Format : AAC LC
Format/Info : Advanced Audio Codec Low Complexity
Codec ID : mp4a-40-2
Duration : 5 h 11 min
Bit rate mode : Variable
Bit rate : 58.5 kb/s
Maximum bit rate : 96.0 kb/s
Channel(s) : 2 channels
Channel layout : L R
Sampling rate : 44.1 kHz
Frame rate : 43.066 FPS (1024 SPF)
Compression mode : Lossy
Stream size : 130 MiB (5%)
Default : Yes
Alternate group : 1

uki6lxc7vt.png

Code:
https://mega.nz/#!EzohAYRC!F7H5vQRiNzkXRSfcanbnyGCtmQXeCD4soVgokEGZ2LA

datafree.png

Code:
https://data.hu/get/13068076/Moms_Bang_Teens_36.001?pid=1538548797
https://data.hu/get/13068080/Moms_Bang_Teens_36.002?pid=1538548797
https://data.hu/get/13068083/Moms_Bang_Teens_36.003?pid=1538548797
https://data.hu/get/13068082/Moms_Bang_Teens_36.004?pid=1538548797
https://data.hu/get/13068081/Moms_Bang_Teens_36.005?pid=1538548797
https://data.hu/get/13068084/Moms_Bang_Teens_36.006?pid=1538548797
https://data.hu/get/13068079/Moms_Bang_Teens_36.007?pid=1538548797
https://data.hu/get/13068078/Moms_Bang_Teens_36.008?pid=1538548797
https://data.hu/get/13068085/Moms_Bang_Teens_36.crc?pid=1538548797

datapremium.png

Code:
https://data.hu/get/13068077/Moms_Bang_Teens_36.zip?pid=1538548797

online.png

Code:
https://videa.hu/videok/felnott/moms-bang-teens-36-oCQ8zyOMZ8nyIntF
 

tkt55

Adminisztrátor
Tag
Csatlakozás
2015.07.17.
Üzenetek
2,256
Reakció pontszám
0
Pontok
36
Hely
Barcs
Webhely
androware.hu
Offline
Moms Bang Teens 37 (2020)

Moms Bang Teens 37 (2020) XXX.DVDRip



Actors:


General
Complete name : Moms Bang Teens 37.mp4
Format : MPEG-4
Format profile : Base Media
Codec ID : isom (isom/iso2/avc1/mp41)
File size : 1.16 GiB
Duration : 2 h 58 min
Overall bit rate mode : Variable
Overall bit rate : 931 kb/s


Video
ID : 1
Format : AVC
Format/Info : Advanced Video Codec
Format profile : High@L3
Format settings : CABAC / 5 Ref Frames
Format settings, CABAC : Yes
Format settings, Reference fra : 5 frames
Codec ID : avc1
Codec ID/Info : Advanced Video Coding
Duration : 2 h 58 min
Bit rate : 795 kb/s
Width : 768 pixels
Height : 432 pixels
Display aspect ratio : 16:9
Frame rate mode : Variable
Frame rate : 23.976 FPS
Minimum frame rate : 7.979 FPS
Maximum frame rate : 1 142.857 FPS
Color space : YUV
Chroma subsampling : 4:2:0
Bit depth : 8 bits
Scan type : Progressive
Bits/(Pixel*Frame) : 0.100
Stream size : 1 013 MiB (85%)
Writing library : x264 core
Codec configuration box : avcC


Audio
ID : 2
Format : AAC LC
Format/Info : Advanced Audio Codec Low Complexity
Codec ID : mp4a-40-2
Duration : 2 h 58 min
Bit rate mode : Variable
Bit rate : 132 kb/s
Channel(s) : 2 channels
Channel layout : L R
Sampling rate : 48.0 kHz
Frame rate : 46.875 FPS (1024 SPF)
Compression mode : Lossy
Stream size : 165 MiB (14%)
Default : Yes
Alternate group : 1


Other
ID : 3
Type : Time code
Format : QuickTime TC
Duration : 2 h 58 min
Frame rate : 23.976 (24000/1001) FPS
Time code of first frame : 00:00:00:00
Time code, striped : Yes
Language : English
Default : No



uki6lxc7vt.png





datafree.png

Code:
https://data.hu/get/13068092/Moms_Bang_Teens_37.001?pid=1538548797
https://data.hu/get/13068088/Moms_Bang_Teens_37.002?pid=1538548797
https://data.hu/get/13068087/Moms_Bang_Teens_37.003?pid=1538548797
https://data.hu/get/13068091/Moms_Bang_Teens_37.004?pid=1538548797
https://data.hu/get/13068090/Moms_Bang_Teens_37.005?pid=1538548797
https://data.hu/get/13068086/Moms_Bang_Teens_37.crc?pid=1538548797


datapremium.png

Code:
https://data.hu/get/13068089/Moms_Bang_Teens_37.zip?pid=1538548797

online.png

Code:
https://videa.hu/videok/felnott/moms-bang-teens-37.mp4-GJtiLfk13JMI5ZfR
 

tkt55

Adminisztrátor
Tag
Csatlakozás
2015.07.17.
Üzenetek
2,256
Reakció pontszám
0
Pontok
36
Hely
Barcs
Webhely
androware.hu
Offline
Moms Bang Teens 38 (2020)

Moms Bang Teens 38 (2020) XXX.DVDRip


Tags:


General
Complete name :Moms Bang Teens 38.mp4
Format : MPEG-4
Format profile : Base Media
Codec ID : isom (isom/iso2/avc1/mp41)
File size : 641 MiB
Duration : 3 h 2 min
Overall bit rate mode : Variable
Overall bit rate : 490 kb/s

Video
ID : 1
Format : AVC
Format/Info : Advanced Video Codec
Format profile : High@L3
Format settings : CABAC / 4 Ref Frames
Format settings, CABAC : Yes
Format settings, Reference fra : 4 frames
Codec ID : avc1
Codec ID/Info : Advanced Video Coding
Duration : 3 h 2 min
Bit rate : 388 kb/s
Width : 640 pixels
Height : 360 pixels
Display aspect ratio : 16:9
Original display aspect ratio : 16:9
Frame rate mode : Variable
Frame rate : 23.976 (23976/1000) FPS
Minimum frame rate : 11.988 FPS
Maximum frame rate : 23.976 FPS
Color space : YUV
Chroma subsampling : 4:2:0
Bit depth : 8 bits
Scan type : Progressive
Bits/(Pixel*Frame) : 0.070
Stream size : 507 MiB (79%)
Writing library : x264
Codec configuration box : avcC

Audio
ID : 2
Format : AAC LC
Format/Info : Advanced Audio Codec Low Complexity
Codec ID : mp4a-40-2
Duration : 3 h 2 min
Bit rate mode : Variable
Bit rate : 96.0 kb/s
Maximum bit rate : 101 kb/s
Channel(s) : 2 channels
Channel layout : L R
Sampling rate : 44.1 kHz
Frame rate : 43.066 FPS (1024 SPF)
Compression mode : Lossy
Stream size : 126 MiB (20%)
Default : Yes
Alternate group : 1


datafree.png

Code:
https://data.hu/get/12764113/Moms_Bang_Teens_38_mp4.001?pid=1538548797
https://data.hu/get/12764112/Moms_Bang_Teens_38_mp4.002?pid=1538548797
https://data.hu/get/12764120/Moms_Bang_Teens_38_mp4.003?pid=1538548797
https://data.hu/get/12764111/Moms_Bang_Teens_38_mp4.004?pid=1538548797
https://data.hu/get/12764119/Moms_Bang_Teens_38_mp4.crc?pid=1538548797

datapremium.png

Code:
https://data.hu/get/13072166/Moms_Bang_Teens_38_mp4.zip?pid=1538548797

online.png

Code:
https://videa.hu/videok/felnott/moms-bang-teens-38-mp4.mp4-18-teensbig-big-cocks-6bjvRaKBnJI4nVS5
 

tkt55

Adminisztrátor
Tag
Csatlakozás
2015.07.17.
Üzenetek
2,256
Reakció pontszám
0
Pontok
36
Hely
Barcs
Webhely
androware.hu
Offline
Moms Bang Teens 39 (2020)

Moms Bang Teens 39 (2020) XXX.DVDrip




Tags:


General
Complete name : Moms Bang Teens 39.mp4
Format : MPEG-4
Format profile : Base Media
Codec ID : isom (isom/iso2/avc1/mp41)
File size : 785 MiB
Duration : 3 h 21 min
Overall bit rate mode : Variable
Overall bit rate : 543 kb/s

Video
ID : 1
Format : AVC
Format/Info : Advanced Video Codec
Format profile : High@L3
Format settings : CABAC / 4 Ref Frames
Format settings, CABAC : Yes
Format settings, Reference fra : 4 frames
Codec ID : avc1
Codec ID/Info : Advanced Video Coding
Duration : 3 h 21 min
Bit rate : 438 kb/s
Width : 640 pixels
Height : 360 pixels
Display aspect ratio : 16:9
Original display aspect ratio : 16:9
Frame rate mode : Constant
Frame rate : 29.970 (30000/1001) FPS
Color space : YUV
Chroma subsampling : 4:2:0
Bit depth : 8 bits
Scan type : Progressive
Bits/(Pixel*Frame) : 0.063
Stream size : 633 MiB (81%)
Writing library : x264
Codec configuration box : avcC

Audio
ID : 2
Format : AAC LC
Format/Info : Advanced Audio Codec Low Complexity
Codec ID : mp4a-40-2
Duration : 3 h 21 min
Bit rate mode : Variable
Bit rate : 96.0 kb/s
Maximum bit rate : 97.5 kb/s
Channel(s) : 2 channels
Channel layout : L R
Sampling rate : 44.1 kHz
Frame rate : 43.066 FPS (1024 SPF)
Compression mode : Lossy
Stream size : 139 MiB (18%)
Default : Yes
Alternate group : 1


datafree.png

Code:
https://data.hu/get/13068096/Moms_Bang_Teens_39.001?pid=1538548797
https://data.hu/get/13068098/Moms_Bang_Teens_39.002?pid=1538548797
https://data.hu/get/13068093/Moms_Bang_Teens_39.003?pid=1538548797
https://data.hu/get/13068095/Moms_Bang_Teens_39.004?pid=1538548797
https://data.hu/get/13068097/Moms_Bang_Teens_39.crc?pid=1538548797

datapremium.png

Code:
https://data.hu/get/13068094/Moms_Bang_Teens_39.zip?pid=1538548797

online.png

Code:
https://videa.hu/videok/felnott/moms-bang-teens-39.mp4-18-big-boobs-FoE3BNeo8p0BB6CU
 
Utoljára szerkesztve:

tkt55

Adminisztrátor
Tag
Csatlakozás
2015.07.17.
Üzenetek
2,256
Reakció pontszám
0
Pontok
36
Hely
Barcs
Webhely
androware.hu
Offline
Moms Bang Teens 40 (2021)

Moms Bang Teens 40 (2021) XXX.DVDRip



Tags:


GeneralComplete name : Moms Bang Teens 40.mp4
Format : MPEG-4
Format profile : Base Media
Codec ID : isom (isom/iso2/avc1/mp41)
File size : 2.24 GiB
Duration : 3 h 15 min
Overall bit rate mode : Variable
Overall bit rate : 1 645 kb/s


Video
ID : 1
Format : AVC
Format/Info : Advanced Video Codec
Format profile : High@L3.1
Format settings : CABAC / 5 Ref Frames
Format settings, CABAC : Yes
Format settings, Reference : 5 frames
Codec ID : avc1
Codec ID/Info : Advanced Video Coding
Duration : 3 h 15 min
Bit rate : 1 501 kb/s
Width : 854 pixels
Height : 480 pixels
Display aspect ratio : 16:9
Frame rate mode : Constant
Frame rate : 23.976 (24000/1001) FPS
Color space : YUV
Chroma subsampling : 4:2:0
Bit depth : 8 bits
Scan type : Progressive
Bits/(Pixel*Frame) : 0.153
Stream size : 2.05 GiB (91%)
Codec configuration box : avcC


Audio
ID : 2
Format : AAC LC
Format/Info : Advanced Audio Codec Low Complexity
Codec ID : mp4a-40-2
Duration : 3 h 15 min
Bit rate mode : Variable
Bit rate : 140 kb/s
Maximum bit rate : 147 kb/s
Channel(s) : 2 channels
Channel layout : L R
Sampling rate : 48.0 kHz
Frame rate : 46.875 FPS (1024 SPF)
Compression mode : Lossy
Stream size : 196 MiB (9%)
Default : Yes
Alternate group : 1


datafree.png

Code:
https://data.hu/get/14204468/Moms_Bang_Teens_40.001?pid=1538548797
https://data.hu/get/14204469/Moms_Bang_Teens_40.002?pid=1538548797
https://data.hu/get/14204466/Moms_Bang_Teens_40.003?pid=1538548797
https://data.hu/get/14204467/Moms_Bang_Teens_40.004?pid=1538548797
https://data.hu/get/14204464/Moms_Bang_Teens_40.crc?pid=1538548797

datapremium.png

Code:
https://data.hu/get/14204465/Moms_Bang_Teens_40.zip?pid=1538548797

online.png

Code:
https://videa.hu/videok/felnott/moms-bang-teens-40.mp4-18-big-boobs-1J8vHc7PJiPtd0Fw
 
Utoljára szerkesztve:

tkt55

Adminisztrátor
Tag
Csatlakozás
2015.07.17.
Üzenetek
2,256
Reakció pontszám
0
Pontok
36
Hely
Barcs
Webhely
androware.hu
Offline
Moms Bang Teens 41 (2021)

Moms Bang Teens 41 (2021) XXX.DVDRip


Actors:


General
Complete name :
Moms Bang Teens 41
.mp4
Format : MPEG-4
Format profile : Base Media
Codec ID : isom (isom/iso2/avc1/mp41)
File size : 1.02 GiB
Duration : 2 h 47 min
Overall bit rate mode : Variable
Overall bit rate : 869 kb/s
Writing application : Lavf58.12.100

Video
ID : 1
Format : AVC
Format/Info : Advanced Video Codec
Format profile : High@L3.1
Format settings : CABAC / 2 Ref Frames
Format settings, CABAC : Yes
Format settings, Reference : 2 frames
Codec ID : avc1
Codec ID/Info : Advanced Video Coding
Duration : 2 h 47 min
Bit rate : 738 kb/s
Width : 854 pixels
Height : 480 pixels
Display aspect ratio : 16:9
Frame rate mode : Constant
Frame rate : 25.000 FPS
Color space : YUV
Chroma subsampling : 4:2:0
Bit depth : 8 bits
Scan type : Progressive
Bits/(Pixel*Frame) : 0.072
Stream size : 883 MiB (85%)
Writing library : x264 core 161 r3018 db0d417
Encoding settings : cabac=1 / ref=1 / deblock=1:0:0 / analyse=0x3:0x113 / me=hex / subme=3 / psy=1 / psy_rd=1.00:0.00 / mixed_ref=0 / me_range=16 / chroma_me=1 / trellis=0 / 8x8dct=1 / cqm=0 / deadzone=21,11 / fast_pskip=1 / chroma_qp_offset=0 / threads=8 / lookahead_threads=2 / sliced_threads=0 / nr=0 / decimate=1 / interlaced=0 / bluray_compat=0 / constrained_intra=0 / bframes=3 / b_pyramid=0 / b_adapt=1 / b_bias=0 / direct=1 / weightb=1 / open_gop=0 / weightp=2 / keyint=250 / keyint_min=25 / scenecut=40 / intra_refresh=0 / rc_lookahead=10 / rc=crf / mbtree=1 / crf=24.0 / qcomp=0.60 / qpmin=10 / qpmax=51 / qpstep=4 / vbv_maxrate=3000 / vbv_bufsize=3000 / crf_max=0.0 / nal_hrd=none / filler=0 / ip_ratio=0.71 / aq=1:1.00
Color range : Limited
Color primaries : BT.709
Transfer characteristics : BT.709
Matrix coefficients : BT.709
Codec configuration box : avcC

Audio
ID : 2
Format : AAC LC
Format/Info : Advanced Audio Codec Low Complexity
Codec ID : mp4a-40-2
Duration : 2 h 47 min
Bit rate mode : Variable
Bit rate : 124 kb/s
Maximum bit rate : 131 kb/s
Channel(s) : 2 channels
Channel layout : L R
Sampling rate : 44.1 kHz
Frame rate : 43.066 FPS (1024 SPF)
Compression mode : Lossy
Stream size : 148 MiB (14%)
Default : Yes
Alternate group : 1


datafree.png

Code:
https://data.hu/get/14204460/Moms_Bang_Teens_41.001?pid=1538548797
https://data.hu/get/14204463/Moms_Bang_Teens_41.002?pid=1538548797
https://data.hu/get/14204457/Moms_Bang_Teens_41.003?pid=1538548797
https://data.hu/get/14204462/Moms_Bang_Teens_41.004?pid=1538548797
https://data.hu/get/14204458/Moms_Bang_Teens_41.005?pid=1538548797
https://data.hu/get/14204459/Moms_Bang_Teens_41.006?pid=1538548797
https://data.hu/get/14204461/Moms_Bang_Teens_41.crc?pid=1538548797

datapremium.png
Code:
https://data.hu/get/12968555/Moms_Bang_Teens_41.zip?pid=1538548797


online.png

Code:
https://videa.hu/videok/felnott/moms-bang-teens-41-D0AZ1dMIOKBZqrW0
 
Utoljára szerkesztve:

tkt55

Adminisztrátor
Tag
Csatlakozás
2015.07.17.
Üzenetek
2,256
Reakció pontszám
0
Pontok
36
Hely
Barcs
Webhely
androware.hu
Offline
Moms Bang Teens 42 (2021)

Moms Bang Teens 42 (2021) XXX.DVDRip


Actors:


General
Complete name : Moms Bang Teens 42.mp4
Format : MPEG-4
Format profile : Base Media
Codec ID : isom (isom/iso2/avc1/mp41)
File size : 1.82 GiB
Duration : 3 h 8 min
Overall bit rate mode : Variable
Overall bit rate : 1 385 kb/s
Writing application : Lavf58.12.100

Video
ID : 1
Format : AVC
Format/Info : Advanced Video Codec
Format profile : High@L3.1
Format settings : CABAC / 2 Ref Frames
Format settings, CABAC : Yes
Format settings, Reference : 2 frames
Codec ID : avc1
Codec ID/Info : Advanced Video Coding
Duration : 3 h 8 min
Bit rate : 1 250 kb/s
Width : 1 280 pixels
Height : 720 pixels
Display aspect ratio : 16:9
Frame rate mode : Constant
Frame rate : 25.000 FPS
Color space : YUV
Chroma subsampling : 4:2:0
Bit depth : 8 bits
Scan type : Progressive
Bits/(Pixel*Frame) : 0.054
Stream size : 1.65 GiB (90%)
Writing library : x264 core 161 r3018 db0d417
Encoding settings : cabac=1 / ref=1 / deblock=1:0:0 / analyse=0x3:0x113 / me=hex / subme=3 / psy=1 / psy_rd=1.00:0.00 / mixed_ref=0 / me_range=16 / chroma_me=1 / trellis=0 / 8x8dct=1 / cqm=0 / deadzone=21,11 / fast_pskip=1 / chroma_qp_offset=0 / threads=8 / lookahead_threads=2 / sliced_threads=0 / nr=0 / decimate=1 / interlaced=0 / bluray_compat=0 / constrained_intra=0 / bframes=3 / b_pyramid=0 / b_adapt=1 / b_bias=0 / direct=1 / weightb=1 / open_gop=0 / weightp=2 / keyint=250 / keyint_min=25 / scenecut=40 / intra_refresh=0 / rc_lookahead=10 / rc=crf / mbtree=1 / crf=24.0 / qcomp=0.60 / qpmin=10 / qpmax=51 / qpstep=4 / vbv_maxrate=3000 / vbv_bufsize=3000 / crf_max=0.0 / nal_hrd=none / filler=0 / ip_ratio=0.71 / aq=1:1.00
Color range : Limited
Color primaries : BT.709
Transfer characteristics : BT.709
Matrix coefficients : BT.709
Codec configuration box : avcC

Audio
ID : 2
Format : AAC LC
Format/Info : Advanced Audio Codec Low Complexity
Codec ID : mp4a-40-2
Duration : 3 h 8 min
Bit rate mode : Variable
Bit rate : 128 kb/s
Maximum bit rate : 137 kb/s
Channel(s) : 2 channels
Channel layout : L R
Sampling rate : 44.1 kHz
Frame rate : 43.066 FPS (1024 SPF)
Compression mode : Lossy
Stream size : 173 MiB (9%)
Default : Yes
Alternate group : 1

datafree.png

Code:
https://data.hu/get/14204449/Moms_Bang_Teens_42.001?pid=1538548797
https://data.hu/get/14204447/Moms_Bang_Teens_42.002?pid=1538548797
https://data.hu/get/14204446/Moms_Bang_Teens_42.003?pid=1538548797
https://data.hu/get/14204443/Moms_Bang_Teens_42.004?pid=1538548797
https://data.hu/get/14204444/Moms_Bang_Teens_42.005?pid=1538548797
https://data.hu/get/14204448/Moms_Bang_Teens_42.006?pid=1538548797
https://data.hu/get/14204441/Moms_Bang_Teens_42.007?pid=1538548797
https://data.hu/get/14204442/Moms_Bang_Teens_42.008?pid=1538548797
https://data.hu/get/14204440/Moms_Bang_Teens_42.009?pid=1538548797
https://data.hu/get/14204450/Moms_Bang_Teens_42.010?pid=1538548797
https://data.hu/get/14204445/Moms_Bang_Teens_42.crc?pid=1538548797

datapremium.png

Code:
https://data.hu/get/12968560/Moms_Bang_Teens_42.zip?pid=1538548797

online.png

Code:
https://videa.hu/videok/felnott/moms-bang-teens-42-Ohf77zEx5psXBnZv
 
Utoljára szerkesztve:

tkt55

Adminisztrátor
Tag
Csatlakozás
2015.07.17.
Üzenetek
2,256
Reakció pontszám
0
Pontok
36
Hely
Barcs
Webhely
androware.hu
Offline
Moms Bang Teens 43 (2021)

Moms Bang Teens 43 (2021) XXX.DVDRip


Actors:



General
Complete name : Moms Bang Teens 43.mp4
Format : MPEG-4
Format profile : Base Media
Codec ID : isom (isom/iso2/avc1/mp41)
File size : 2.23 GiB
Duration : 3 h 11 min
Overall bit rate mode : Constant
Overall bit rate : 1 663 kb/s
Writing application : Lavf58.74.100

Video
ID : 1
Format : AVC
Format/Info : Advanced Video Codec
Format profile : Main@L3.1
Format settings : CABAC / 1 Ref Frames
Format settings, CABAC : Yes
Format settings, Reference : 1 frame
Format settings, GOP : M=1, N=25
Codec ID : avc1
Codec ID/Info : Advanced Video Coding
Duration : 3 h 11 min
Source duration : 3 h 11 min
Bit rate mode : Constant
Bit rate : 1 600 kb/s
Maximum bit rate : 1 530 kb/s
Width : 854 pixels
Height : 480 pixels
Display aspect ratio : 16:9
Frame rate mode : Variable
Frame rate : 24.000 FPS
Minimum frame rate : 7.991 FPS
Maximum frame rate : 90 000.000 FPS
Original frame rate : 29.970 (30000/1001) FPS
Color space : YUV
Chroma subsampling : 4:2:0
Bit depth : 8 bits
Scan type : Progressive
Bits/(Pixel*Frame) : 0.163
Stream size : 2.05 GiB (92%)
Source stream size : 2.05 GiB (92%)
mdhd_Duration : 11502237
Codec configuration box : avcC

Audio
ID : 2
Format : AAC LC
Format/Info : Advanced Audio Codec Low Complexity
Codec ID : mp4a-40-2
Duration : 3 h 11 min
Bit rate mode : Constant
Bit rate : 128 kb/s
Channel(s) : 2 channels
Channel layout : L R
Sampling rate : 48.0 kHz
Frame rate : 46.875 FPS (1024 SPF)
Compression mode : Lossy
Stream size : 176 MiB (8%)
Default : Yes
Alternate group : 1


datafree.png

Code:
https://data.hu/get/14204437/Moms_Bang_Teens_43.001?pid=1538548797
https://data.hu/get/14204438/Moms_Bang_Teens_43.002?pid=1538548797
https://data.hu/get/14204433/Moms_Bang_Teens_43.003?pid=1538548797
https://data.hu/get/14204436/Moms_Bang_Teens_43.004?pid=1538548797
https://data.hu/get/14204432/Moms_Bang_Teens_43.005?pid=1538548797
https://data.hu/get/14204434/Moms_Bang_Teens_43.006?pid=1538548797
https://data.hu/get/14204439/Moms_Bang_Teens_43.crc?pid=1538548797

datapremium.png

Code:
https://data.hu/get/14204435/Moms_Bang_Teens_43.zip?pid=1538548797

online.png

Code:
https://videa.hu/videok/felnott/moms-bang-teens-43-aEgey0MnITod8T0M
 
Utoljára szerkesztve:

tkt55

Adminisztrátor
Tag
Csatlakozás
2015.07.17.
Üzenetek
2,256
Reakció pontszám
0
Pontok
36
Hely
Barcs
Webhely
androware.hu
Offline
Moms Bang Teens 44 (2021)

Moms Bang Teens 44 (2021) XXX.DVDRip



Featuring:


General
Complete name : Moms Bang Teens 44.mp4
Format : MPEG-4
Format profile : Base Media
Codec ID : isom (isom/iso2/avc1/mp41)
File size : 2.33 GiB
Duration : 3 h 13 min
Overall bit rate mode : Constant
Overall bit rate : 1 719 kb/s
Writing application : Lavf58.74.100


Video
ID : 1
Format : AVC
Format/Info : Advanced Video Codec
Format profile : Main@L3.1
Format settings : CABAC / 1 Ref Frames
Format settings, CABAC : Yes
Format settings, Reference : 1 frame
Format settings, GOP : M=1, N=25
Codec ID : avc1
Codec ID/Info : Advanced Video Coding
Duration : 3 h 13 min
Source duration : 3 h 13 min
Bit rate mode : Constant
Bit rate : 1 580 kb/s
Width : 854 pixels
Height : 480 pixels
Display aspect ratio : 16:9
Frame rate mode : Variable
Frame rate : 24.000 FPS
Minimum frame rate : 7.991 FPS
Maximum frame rate : 90 000.000 FPS
Original frame rate : 29.970 (30000/1001) FPS
Color space : YUV
Chroma subsampling : 4:2:0
Bit depth : 8 bits
Scan type : Progressive
Bits/(Pixel*Frame) : 0.161
Stream size : 2.14 GiB (92%)
Source stream size : 2.14 GiB (92%)
mdhd_Duration : 11628831
Codec configuration box : avcC


Audio
ID : 2
Format : AAC LC
Format/Info : Advanced Audio Codec Low Complexity
Codec ID : mp4a-40-2
Duration : 3 h 13 min
Bit rate mode : Constant
Bit rate : 132 kb/s
Channel(s) : 2 channels
Channel layout : L R
Sampling rate : 48.0 kHz
Frame rate : 46.875 FPS (1024 SPF)
Compression mode : Lossy
Stream size : 185 MiB (8%)
Default : Yes
Alternate group : 1



datafree.png

Code:
https://data.hu/get/14204426/Moms_Bang_Teens_44.001?pid=1538548797
https://data.hu/get/14204427/Moms_Bang_Teens_44.002?pid=1538548797
https://data.hu/get/14204422/Moms_Bang_Teens_44.003?pid=1538548797
https://data.hu/get/14204425/Moms_Bang_Teens_44.004?pid=1538548797
https://data.hu/get/14204429/Moms_Bang_Teens_44.005?pid=1538548797
https://data.hu/get/14204428/Moms_Bang_Teens_44.006?pid=1538548797
https://data.hu/get/14204430/Moms_Bang_Teens_44.007?pid=1538548797
https://data.hu/get/14204423/Moms_Bang_Teens_44.crc?pid=1538548797

datapremium.png

Code:
https://data.hu/get/14204424/Moms_Bang_Teens_44.zip?pid=1538548797

online.png

Code:
https://videa.hu/videok/felnott/watch-moms-bang-teens-44.mp4-zRtrmRZFZ2CovF49
 
Utoljára szerkesztve:

tkt55

Adminisztrátor
Tag
Csatlakozás
2015.07.17.
Üzenetek
2,256
Reakció pontszám
0
Pontok
36
Hely
Barcs
Webhely
androware.hu
Offline
Moms Bang Teens 45 (2021)

Moms Bang Teens 45 (2021) XXX.DVDRip


Featuring:


General
Complete name : Moms Bang Teens 45.mp4
Format : MPEG-4
Format profile : Base Media
Codec ID : isom (isom/iso2/avc1/mp41)
File size : 843 MiB
Duration : 2 h 50 min
Overall bit rate : 690 kb/s
Writing application : Lavf58.76.100

Video
ID : 1
Format : AVC
Format/Info : Advanced Video Codec
Format profile : High@L3.1
Format settings : CABAC / 3 Ref Frames
Format settings, CABAC : Yes
Format settings, Reference : 3 frames
Codec ID : avc1
Codec ID/Info : Advanced Video Coding
Duration : 2 h 50 min
Bit rate : 561 kb/s
Maximum bit rate : 962 kb/s
Width : 854 pixels
Height : 480 pixels
Display aspect ratio : 16:9
Frame rate mode : Constant
Frame rate : 29.970 (29970/1000) FPS
Color space : YUV
Chroma subsampling : 4:2:0
Bit depth : 8 bits
Scan type : Progressive
Bits/(Pixel*Frame) : 0.046
Stream size : 684 MiB (81%)
Writing library : x264 core 152 r2854 e9a5903
Encoding settings : cabac=1 / ref=3 / deblock=1:-1:-1 / analyse=0x3:0x113 / me=hex / subme=7 / psy=1 / psy_rd=1.00:0.15 / mixed_ref=1 / me_range=16 / chroma_me=1 / trellis=1 / 8x8dct=1 / cqm=0 / deadzone=21,11 / fast_pskip=1 / chroma_qp_offset=-3 / threads=15 / lookahead_threads=2 / sliced_threads=0 / nr=0 / decimate=1 / interlaced=0 / bluray_compat=0 / constrained_intra=0 / bframes=0 / weightp=2 / keyint=250 / keyint_min=25 / scenecut=40 / intra_refresh=0 / rc_lookahead=40 / rc=crf / mbtree=1 / crf=27.0 / qcomp=0.60 / qpmin=0 / qpmax=69 / qpstep=4 / vbv_maxrate=962 / vbv_bufsize=1587 / crf_max=0.0 / nal_hrd=none / filler=0 / ip_ratio=1.40 / aq=1:1.00
Tagged date : UTC 2021-10-09 19:29:25
Codec configuration box : avcC

Audio
ID : 2
Format : AAC LC
Format/Info : Advanced Audio Codec Low Complexity
Codec ID : mp4a-40-2
Duration : 2 h 50 min
Bit rate mode : Constant
Bit rate : 127 kb/s
Channel(s) : 2 channels
Channel layout : L R
Sampling rate : 48.0 kHz
Frame rate : 46.875 FPS (1024 SPF)
Compression mode : Lossy
Stream size : 155 MiB (18%)
Default : Yes
Alternate group : 1
Tagged date : UTC 2021-10-09 19:29:25


datafree.png

Code:
https://data.hu/get/14204390/Moms_Bang_Teens_45.001?pid=1538548797
https://data.hu/get/14204394/Moms_Bang_Teens_45.002?pid=1538548797
https://data.hu/get/14204392/Moms_Bang_Teens_45.003?pid=1538548797
https://data.hu/get/14204393/Moms_Bang_Teens_45.004?pid=1538548797
https://data.hu/get/14204395/Moms_Bang_Teens_45.005?pid=1538548797
https://data.hu/get/14204391/Moms_Bang_Teens_45.crc?pid=1538548797

datapremium.png

Code:
https://data.hu/get/14204389/Moms_Bang_Teens_45.zip?pid=1538548797

online.png

Code:
https://videa.hu/videok/felnott/moms-bang-teens-45-GAOkzB2aHWfowh5o
 
Utoljára szerkesztve:

tkt55

Adminisztrátor
Tag
Csatlakozás
2015.07.17.
Üzenetek
2,256
Reakció pontszám
0
Pontok
36
Hely
Barcs
Webhely
androware.hu
Offline
Moms Bang Teens 46.mp4



Cast & Stars:




General
Complete name : Moms Bang Teens 46.mp4
Format : MPEG-4
Format profile : Base Media
Codec ID : isom (isom/iso2/avc1/mp41)
File size : 4.26 GiB
Duration : 3 h 14 min
Overall bit rate : 3 142 kb/s
Frame rate : 30.000 FPS
Writing application : Lavf58.51.100

Video
ID : 1
Format : AVC
Format/Info : Advanced Video Codec
Format profile : Main@L3.2
Format settings : CABAC / 4 Ref Frames
Format settings, CABAC : Yes
Format settings, Reference fra : 4 frames
Codec ID : avc1
Codec ID/Info : Advanced Video Coding
Duration : 3 h 14 min
Source duration : 3 h 14 min
Bit rate : 3 000 kb/s
Width : 1 280 pixels
Height : 720 pixels
Display aspect ratio : 16:9
Frame rate mode : Variable
Frame rate : 30.000 FPS
Minimum frame rate : 11.957 FPS
Maximum frame rate : 30.000 FPS
Color space : YUV
Chroma subsampling : 4:2:0
Bit depth : 8 bits
Scan type : Progressive
Bits/(Pixel*Frame) : 0.109
Stream size : 4.07 GiB (96%)
Source stream size : 4.07 GiB (96%)
Writing library : x264 core 164
Encoding settings : cabac=1 / ref=2 / deblock=1:0:0 / analyse=0x1:0x111 / me=hex / subme=7 / psy=1 / psy_rd=1.00:0.00 / mixed_ref=1 / me_range=16 / chroma_me=1 / trellis=1 / 8x8dct=0 / cqm=0 / deadzone=21,11 / fast_pskip=1 / chroma_qp_offset=-2 / threads=21 / lookahead_threads=3 / sliced_threads=0 / nr=0 / decimate=1 / interlaced=0 / bluray_compat=0 / constrained_intra=0 / bframes=2 / b_pyramid=2 / b_adapt=1 / b_bias=0 / direct=1 / weightb=1 / open_gop=0 / weightp=2 / keyint=30 / keyint_min=16 / scenecut=0 / intra_refresh=0 / rc_lookahead=30 / rc=abr / mbtree=1 / bitrate=3000 / ratetol=1.0 / qcomp=0.60 / qpmin=0 / qpmax=69 / qpstep=4 / vbv_maxrate=3750 / vbv_bufsize=3750 / nal_hrd=none / filler=0 / ip_ratio=1.40 / aq=1:1.00
mdhd_Duration : 11645294
Codec configuration box : avcC

Audio
ID : 2
Format : AAC LC
Format/Info : Advanced Audio Codec Low Complexity
Codec ID : mp4a-40-2
Duration : 3 h 14 min
Bit rate mode : Constant
Bit rate : 128 kb/s
Channel(s) : 2 channels
Channel layout : L R
Sampling rate : 44.1 kHz
Frame rate : 43.066 FPS (1024 SPF)
Compression mode : Lossy
Stream size : 178 MiB (4%)
Default : Yes
Alternate group : 1


datafree.png

Code:
https://data.hu/get/14201927/Moms_Bang_Teens_46.001?pid=1538548797
https://data.hu/get/14201926/Moms_Bang_Teens_46.002?pid=1538548797
https://data.hu/get/14201929/Moms_Bang_Teens_46.003?pid=1538548797
https://data.hu/get/14201934/Moms_Bang_Teens_46.004?pid=1538548797
https://data.hu/get/14201919/Moms_Bang_Teens_46.005?pid=1538548797
https://data.hu/get/14201916/Moms_Bang_Teens_46.006?pid=1538548797
https://data.hu/get/14201915/Moms_Bang_Teens_46.007?pid=1538548797
https://data.hu/get/14201922/Moms_Bang_Teens_46.008?pid=1538548797
https://data.hu/get/14201920/Moms_Bang_Teens_46.009?pid=1538548797
https://data.hu/get/14201931/Moms_Bang_Teens_46.010?pid=1538548797
https://data.hu/get/14201935/Moms_Bang_Teens_46.011?pid=1538548797
https://data.hu/get/14201936/Moms_Bang_Teens_46.012?pid=1538548797
https://data.hu/get/14201932/Moms_Bang_Teens_46.013?pid=1538548797
https://data.hu/get/14201938/Moms_Bang_Teens_46.014?pid=1538548797
https://data.hu/get/14201921/Moms_Bang_Teens_46.015?pid=1538548797
https://data.hu/get/14201933/Moms_Bang_Teens_46.016?pid=1538548797
https://data.hu/get/14201937/Moms_Bang_Teens_46.017?pid=1538548797
https://data.hu/get/14201918/Moms_Bang_Teens_46.018?pid=1538548797
https://data.hu/get/14201924/Moms_Bang_Teens_46.019?pid=1538548797
https://data.hu/get/14201925/Moms_Bang_Teens_46.020?pid=1538548797
https://data.hu/get/14201917/Moms_Bang_Teens_46.021?pid=1538548797
https://data.hu/get/14201928/Moms_Bang_Teens_46.022?pid=1538548797
https://data.hu/get/14201923/Moms_Bang_Teens_46.crc?pid=1538548797

datapremium.png

Code:
https://data.hu/get/14201963/Moms_Bang_Teens_46.001?pid=1538548797
https://data.hu/get/14201960/Moms_Bang_Teens_46.002?pid=1538548797
https://data.hu/get/14201965/Moms_Bang_Teens_46.003?pid=1538548797
https://data.hu/get/14201966/Moms_Bang_Teens_46.004?pid=1538548797
https://data.hu/get/14201957/Moms_Bang_Teens_46.005?pid=1538548797
https://data.hu/get/14201958/Moms_Bang_Teens_46.crc?pid=1538548797

online.png


Code:
https://videa.hu/videok/felnott/moms-bang-teens-46-blowjob-brunette-hetero-2yerHAUOXa5t3Ixd
 
Utoljára szerkesztve:

tkt55

Adminisztrátor
Tag
Csatlakozás
2015.07.17.
Üzenetek
2,256
Reakció pontszám
0
Pontok
36
Hely
Barcs
Webhely
androware.hu
Offline
Moms Bang Teens 47



Cast & Stars:



General
Complete name : Moms Bang Teens 47.mp4
Format : MPEG-4
Format profile : Base Media / Version 2
Codec ID : mp42 (mp42/isom)
File size : 1.52 GiB
Duration : 2 h 48 min
Overall bit rate mode : Constant
Overall bit rate : 1 295 kb/s
Frame rate : 30.000 FPS
Encoded date : 2024-05-26 14:41:07 UTC
Tagged date : 2024-05-26 14:41:07 UTC

Video
ID : 1
Format : AVC
Format/Info : Advanced Video Codec
Format profile : High@L3.1
Format settings : CABAC / 2 Ref Frames
Format settings, CABAC : Yes
Format settings, Reference fra : 2 frames
Format settings, GOP : M=3, N=30
Muxing mode : Container profile=Baseline@L3
Codec ID : avc1
Codec ID/Info : Advanced Video Coding
Duration : 2 h 48 min
Bit rate mode : Constant
Bit rate : 1 199 kb/s
Width : 854 pixels
Height : 480 pixels
Display aspect ratio : 16:9
Frame rate mode : Constant
Frame rate : 30.000 FPS
Color space : YUV
Chroma subsampling : 4:2:0
Bit depth : 8 bits
Scan type : Progressive
Bits/(Pixel*Frame) : 0.098
Stream size : 1.40 GiB (92%)
Color range : Limited
Color primaries : BT.709
Transfer characteristics : BT.709
Matrix coefficients : BT.709
Codec configuration box : avcC

Audio
ID : 2
Format : AAC LC
Format/Info : Advanced Audio Codec Low Complexity
Codec ID : mp4a-40-2
Duration : 2 h 48 min
Bit rate mode : Constant
Bit rate : 96.0 kb/s
Channel(s) : 2 channels
Channel layout : L R
Sampling rate : 44.1 kHz
Frame rate : 43.066 FPS (1024 SPF)
Compression mode : Lossy
Stream size : 116 MiB (7%)
Title : Stereo
Default : Yes
Alternate group : 1


datafree.png

Code:
https://data.hu/get/14201982/Moms_Bang_Teens_47.001?pid=1538548797
https://data.hu/get/14201972/Moms_Bang_Teens_47.002?pid=1538548797
https://data.hu/get/14201975/Moms_Bang_Teens_47.003?pid=1538548797
https://data.hu/get/14201973/Moms_Bang_Teens_47.004?pid=1538548797
https://data.hu/get/14201974/Moms_Bang_Teens_47.005?pid=1538548797
https://data.hu/get/14201978/Moms_Bang_Teens_47.006?pid=1538548797
https://data.hu/get/14201971/Moms_Bang_Teens_47.007?pid=1538548797
https://data.hu/get/14201977/Moms_Bang_Teens_47.008?pid=1538548797
https://data.hu/get/14201976/Moms_Bang_Teens_47.crc?pid=1538548797

datapremium.png

Code:
https://data.hu/get/14201970/Moms_Bang_Teens_47.zip?pid=1538548797

online.png

Code:
https://videa.hu/videok/felnott/moms-bang-teens-47-blowjob-brunette-hetero-gdnWOSEfBNJWtaDq
 

tkt55

Adminisztrátor
Tag
Csatlakozás
2015.07.17.
Üzenetek
2,256
Reakció pontszám
0
Pontok
36
Hely
Barcs
Webhely
androware.hu
Offline
Moms Bang Teens 48



Cast & Stars:



General
Complete name : Moms Bang Teens 48.mp4
Format : MPEG-4
Format profile : Base Media / Version 2
Codec ID : mp42 (mp42/isom)
File size : 3.07 GiB
Duration : 2 h 49 min
Overall bit rate mode : Constant
Overall bit rate : 2 595 kb/s
Frame rate : 30.000 FPS
Encoded date : 2024-05-26 15:30:26 UTC
Tagged date : 2024-05-26 15:30:26 UTC

Video
ID : 1
Format : AVC
Format/Info : Advanced Video Codec
Format profile : High@L3.1
Format settings : CABAC / 2 Ref Frames
Format settings, CABAC : Yes
Format settings, Reference fra : 2 frames
Format settings, GOP : M=3, N=30
Muxing mode : Container profile=Baseline@L3
Codec ID : avc1
Codec ID/Info : Advanced Video Coding
Duration : 2 h 49 min
Source duration : 2 h 49 min
Bit rate mode : Constant
Bit rate : 2 500 kb/s
Width : 1 280 pixels
Height : 720 pixels
Display aspect ratio : 16:9
Frame rate mode : Constant
Frame rate : 30.000 FPS
Color space : YUV
Chroma subsampling : 4:2:0
Bit depth : 8 bits
Scan type : Progressive
Bits/(Pixel*Frame) : 0.090
Stream size : 2.95 GiB (96%)
Source stream size : 2.95 GiB (96%)
Color range : Limited
Color primaries : BT.709
Transfer characteristics : BT.709
Matrix coefficients : BT.709
Codec configuration box : avcC

Audio
ID : 2
Format : AAC LC
Format/Info : Advanced Audio Codec Low Complexity
Codec ID : mp4a-40-2
Duration : 2 h 49 min
Source duration : 2 h 49 min
Bit rate mode : Constant
Bit rate : 96.0 kb/s
Channel(s) : 2 channels
Channel layout : L R
Sampling rate : 44.1 kHz
Frame rate : 43.066 FPS (1024 SPF)
Compression mode : Lossy
Stream size : 116 MiB (4%)
Source stream size : 116 MiB (4%)
Title : Stereo
Default : Yes
Alternate group : 1


datafree.png

Code:
https://data.hu/get/14202045/Moms_Bang_Teens_48.001?pid=1538548797
https://data.hu/get/14202054/Moms_Bang_Teens_48.002?pid=1538548797
https://data.hu/get/14202051/Moms_Bang_Teens_48.003?pid=1538548797
https://data.hu/get/14202041/Moms_Bang_Teens_48.004?pid=1538548797
https://data.hu/get/14202049/Moms_Bang_Teens_48.005?pid=1538548797
https://data.hu/get/14202052/Moms_Bang_Teens_48.006?pid=1538548797
https://data.hu/get/14202047/Moms_Bang_Teens_48.007?pid=1538548797
https://data.hu/get/14202043/Moms_Bang_Teens_48.008?pid=1538548797
https://data.hu/get/14202046/Moms_Bang_Teens_48.009?pid=1538548797
https://data.hu/get/14202056/Moms_Bang_Teens_48.010?pid=1538548797
https://data.hu/get/14202057/Moms_Bang_Teens_48.011?pid=1538548797
https://data.hu/get/14202042/Moms_Bang_Teens_48.012?pid=1538548797
https://data.hu/get/14202050/Moms_Bang_Teens_48.013?pid=1538548797
https://data.hu/get/14202044/Moms_Bang_Teens_48.014?pid=1538548797
https://data.hu/get/14202048/Moms_Bang_Teens_48.015?pid=1538548797
https://data.hu/get/14202055/Moms_Bang_Teens_48.016?pid=1538548797
https://data.hu/get/14202053/Moms_Bang_Teens_48.crc?pid=1538548797

datapremium.png

Code:
https://data.hu/get/14202071/Moms_Bang_Teens_48.001?pid=1538548797
https://data.hu/get/14202074/Moms_Bang_Teens_48.002?pid=1538548797
https://data.hu/get/14202072/Moms_Bang_Teens_48.003?pid=1538548797
https://data.hu/get/14202070/Moms_Bang_Teens_48.004?pid=1538548797
https://data.hu/get/14202073/Moms_Bang_Teens_48.crc?pid=1538548797

online.png

Code:
https://videa.hu/videok/felnott/moms-bang-teens-48-blowjob-brunette-cowgirl-milf-MR66Z3JYlKbW91mr
 

tkt55

Adminisztrátor
Tag
Csatlakozás
2015.07.17.
Üzenetek
2,256
Reakció pontszám
0
Pontok
36
Hely
Barcs
Webhely
androware.hu
Offline
Moms Bang Teens 49


Cast & Stars:


General
Complete name : Moms Bang Teens 49.mp4
Format : MPEG-4
Format profile : Base Media / Version 2
Codec ID : mp42 (mp42/isom)
File size : 2.44 GiB
Duration : 2 h 12 min
Overall bit rate mode : Constant
Overall bit rate : 2 628 kb/s
Frame rate : 30.000 FPS
Encoded date : 2024-05-26 17:06:39 UTC
Tagged date : 2024-05-26 17:06:39 UTC

Video
ID : 1
Format : AVC
Format/Info : Advanced Video Codec
Format profile : High@L3.1
Format settings : CABAC / 2 Ref Frames
Format settings, CABAC : Yes
Format settings, Reference fra : 2 frames
Format settings, GOP : M=3, N=30
Muxing mode : Container profile=Baseline@L3
Codec ID : avc1
Codec ID/Info : Advanced Video Coding
Duration : 2 h 12 min
Bit rate mode : Constant
Bit rate : 2 500 kb/s
Width : 1 280 pixels
Height : 720 pixels
Display aspect ratio : 16:9
Frame rate mode : Constant
Frame rate : 30.000 FPS
Color space : YUV
Chroma subsampling : 4:2:0
Bit depth : 8 bits
Scan type : Progressive
Bits/(Pixel*Frame) : 0.090
Stream size : 2.31 GiB (95%)
Color range : Limited
Color primaries : BT.709
Transfer characteristics : BT.709
Matrix coefficients : BT.709
Codec configuration box : avcC

Audio
ID : 2
Format : AAC LC
Format/Info : Advanced Audio Codec Low Complexity
Codec ID : mp4a-40-2
Duration : 2 h 12 min
Bit rate mode : Constant
Bit rate : 128 kb/s
Channel(s) : 2 channels
Channel layout : L R
Sampling rate : 44.1 kHz
Frame rate : 43.066 FPS (1024 SPF)
Compression mode : Lossy
Stream size : 122 MiB (5%)
Title : Stereo
Default : Yes
Alternate group : 1


datafree.png

Code:
https://data.hu/get/14203268/Moms_Bang_Teens_49.001?pid=1538548797
https://data.hu/get/14203278/Moms_Bang_Teens_49.002?pid=1538548797
https://data.hu/get/14203276/Moms_Bang_Teens_49.003?pid=1538548797
https://data.hu/get/14203279/Moms_Bang_Teens_49.004?pid=1538548797
https://data.hu/get/14203266/Moms_Bang_Teens_49.005?pid=1538548797
https://data.hu/get/14203272/Moms_Bang_Teens_49.006?pid=1538548797
https://data.hu/get/14203275/Moms_Bang_Teens_49.007?pid=1538548797
https://data.hu/get/14203274/Moms_Bang_Teens_49.008?pid=1538548797
https://data.hu/get/14203270/Moms_Bang_Teens_49.009?pid=1538548797
https://data.hu/get/14203271/Moms_Bang_Teens_49.010?pid=1538548797
https://data.hu/get/14203269/Moms_Bang_Teens_49.011?pid=1538548797
https://data.hu/get/14203267/Moms_Bang_Teens_49.012?pid=1538548797
https://data.hu/get/14203273/Moms_Bang_Teens_49.013?pid=1538548797
https://data.hu/get/14203277/Moms_Bang_Teens_49.crc?pid=1538548797

datapremium.png

Code:
https://data.hu/get/14203308/Moms_Bang_Teens_49.001?pid=1538548797
https://data.hu/get/14203311/Moms_Bang_Teens_49.002?pid=1538548797
https://data.hu/get/14203309/Moms_Bang_Teens_49.003?pid=1538548797
https://data.hu/get/14203310/Moms_Bang_Teens_49.crc?pid=1538548797

online.png

Code:
https://videa.hu/videok/felnott/moms-bang-teens-49-blowjob-brunette-cowgirl-tbw0dth26nwyDURO
 

tkt55

Adminisztrátor
Tag
Csatlakozás
2015.07.17.
Üzenetek
2,256
Reakció pontszám
0
Pontok
36
Hely
Barcs
Webhely
androware.hu
Offline
Moms Bang Teens 50

ű

Cast & Stars:


General
Complete name : Moms Bang Teens 50.mp4
Format : MPEG-4
Format profile : Base Media
Codec ID : isom (isom/iso2/avc1/mp41)
File size : 2.39 GiB
Duration : 2 h 43 min
Overall bit rate : 2 090 kb/s
Frame rate : 30.000 FPS
Writing application : Lavf58.76.100

Video
ID : 1
Format : AVC
Format/Info : Advanced Video Codec
Format profile : High@L3.1
Format settings : CABAC / 4 Ref Frames
Format settings, CABAC : Yes
Format settings, Reference fra : 4 frames
Codec ID : avc1
Codec ID/Info : Advanced Video Coding
Duration : 2 h 43 min
Source duration : 2 h 43 min
Bit rate : 1 870 kb/s
Maximum bit rate : 2 000 kb/s
Width : 1 280 pixels
Height : 720 pixels
Display aspect ratio : 16:9
Frame rate mode : Constant
Frame rate : 30.000 FPS
Color space : YUV
Chroma subsampling : 4:2:0
Bit depth : 8 bits
Scan type : Progressive
Bits/(Pixel*Frame) : 0.068
Stream size : 2.13 GiB (89%)
Source stream size : 2.23 GiB (93%)
Writing library : x264 core 163
Encoding settings : cabac=1 / ref=1 / deblock=1:0:0 / analyse=0x3:0x3 / me=dia / subme=1 / psy=1 / psy_rd=1.00:0.00 / mixed_ref=0 / me_range=16 / chroma_me=1 / trellis=0 / 8x8dct=1 / cqm=0 / deadzone=21,11 / fast_pskip=1 / chroma_qp_offset=0 / threads=12 / lookahead_threads=2 / sliced_threads=0 / nr=0 / decimate=1 / interlaced=0 / bluray_compat=0 / constrained_intra=0 / bframes=3 / b_pyramid=2 / b_adapt=1 / b_bias=0 / direct=1 / weightb=1 / open_gop=0 / weightp=1 / keyint=150 / keyint_min=15 / scenecut=40 / intra_refresh=0 / rc_lookahead=0 / rc=crf / mbtree=0 / crf=24.0 / qcomp=0.60 / qpmin=0 / qpmax=69 / qpstep=4 / vbv_maxrate=2000 / vbv_bufsize=10000 / crf_max=0.0 / nal_hrd=none / filler=0 / ip_ratio=1.40 / pb_ratio=1.30 / aq=1:1.00
mdhd_Duration : 9804200
Codec configuration box : avcC

Audio
ID : 2
Format : AAC LC
Format/Info : Advanced Audio Codec Low Complexity
Codec ID : mp4a-40-2
Duration : 2 h 43 min
Source duration : 2 h 43 min
Bit rate mode : Constant
Bit rate : 128 kb/s
Channel(s) : 2 channels
Channel layout : L R
Sampling rate : 44.1 kHz
Frame rate : 43.066 FPS (1024 SPF)
Compression mode : Lossy
Stream size : 150 MiB (6%)
Source stream size : 150 MiB (6%)
Default : Yes
Alternate group : 1
mdhd_Duration : 9804254


datafree.png

Code:
https://data.hu/get/14203331/Moms_Bang_Teens_50.001?pid=1538548797
https://data.hu/get/14203336/Moms_Bang_Teens_50.002?pid=1538548797
https://data.hu/get/14203332/Moms_Bang_Teens_50.003?pid=1538548797
https://data.hu/get/14203337/Moms_Bang_Teens_50.004?pid=1538548797
https://data.hu/get/14203333/Moms_Bang_Teens_50.005?pid=1538548797
https://data.hu/get/14203334/Moms_Bang_Teens_50.006?pid=1538548797
https://data.hu/get/14203329/Moms_Bang_Teens_50.007?pid=1538548797
https://data.hu/get/14203328/Moms_Bang_Teens_50.008?pid=1538548797
https://data.hu/get/14203330/Moms_Bang_Teens_50.009?pid=1538548797
https://data.hu/get/14203335/Moms_Bang_Teens_50.010?pid=1538548797
https://data.hu/get/14203325/Moms_Bang_Teens_50.011?pid=1538548797
https://data.hu/get/14203326/Moms_Bang_Teens_50.012?pid=1538548797
https://data.hu/get/14203327/Moms_Bang_Teens_50.013?pid=1538548797
https://data.hu/get/14203338/Moms_Bang_Teens_50.crc?pid=1538548797

datapremium.png

Code:
https://data.hu/get/14203339/Moms_Bang_Teens_50.001?pid=1538548797
https://data.hu/get/14203341/Moms_Bang_Teens_50.002?pid=1538548797
https://data.hu/get/14203340/Moms_Bang_Teens_50.003?pid=1538548797
https://data.hu/get/14203342/Moms_Bang_Teens_50.crc?pid=1538548797

online.png

Code:
https://videa.hu/videok/felnott/moms-bang-teens-50-blowjob-brunette-cowgirl-4PZPvUDJpAO9ciey
 

tkt55

Adminisztrátor
Tag
Csatlakozás
2015.07.17.
Üzenetek
2,256
Reakció pontszám
0
Pontok
36
Hely
Barcs
Webhely
androware.hu
Offline
Moms Bang Teens 51



Cast & Stars:


General
Complete name : Moms Bang Teens 51.mp4
Format : MPEG-4
Format profile : Base Media / Version 2
Codec ID : mp42 (mp42/isom)
File size : 2.79 GiB
Duration : 2 h 33 min
Overall bit rate mode : Constant
Overall bit rate : 2 595 kb/s
Frame rate : 24.000 FPS
Encoded date : 2024-05-26 18:18:43 UTC
Tagged date : 2024-05-26 18:18:43 UTC

Video
ID : 1
Format : AVC
Format/Info : Advanced Video Codec
Format profile : High@L3.1
Format settings : CABAC / 2 Ref Frames
Format settings, CABAC : Yes
Format settings, Reference fra : 2 frames
Format settings, GOP : M=3, N=24
Muxing mode : Container profile=Baseline@L3
Codec ID : avc1
Codec ID/Info : Advanced Video Coding
Duration : 2 h 33 min
Source duration : 2 h 33 min
Bit rate mode : Constant
Bit rate : 2 500 kb/s
Width : 1 280 pixels
Height : 720 pixels
Display aspect ratio : 16:9
Frame rate mode : Constant
Frame rate : 24.000 FPS
Color space : YUV
Chroma subsampling : 4:2:0
Bit depth : 8 bits
Scan type : Progressive
Bits/(Pixel*Frame) : 0.113
Stream size : 2.68 GiB (96%)
Source stream size : 2.68 GiB (96%)
Color range : Limited
Color primaries : BT.709
Transfer characteristics : BT.709
Matrix coefficients : BT.709
Codec configuration box : avcC

Audio
ID : 2
Format : AAC LC
Format/Info : Advanced Audio Codec Low Complexity
Codec ID : mp4a-40-2
Duration : 2 h 33 min
Bit rate mode : Constant
Bit rate : 96.0 kb/s
Channel(s) : 2 channels
Channel layout : L R
Sampling rate : 48.0 kHz
Frame rate : 46.875 FPS (1024 SPF)
Compression mode : Lossy
Stream size : 106 MiB (4%)
Title : Stereo
Default : Yes
Alternate group : 1


datafree.png

Code:
https://data.hu/get/14203350/Moms_Bang_Teens_51.001?pid=1538548797
https://data.hu/get/14203348/Moms_Bang_Teens_51.002?pid=1538548797
https://data.hu/get/14203345/Moms_Bang_Teens_51.003?pid=1538548797
https://data.hu/get/14203354/Moms_Bang_Teens_51.004?pid=1538548797
https://data.hu/get/14203360/Moms_Bang_Teens_51.005?pid=1538548797
https://data.hu/get/14203353/Moms_Bang_Teens_51.006?pid=1538548797
https://data.hu/get/14203346/Moms_Bang_Teens_51.007?pid=1538548797
https://data.hu/get/14203359/Moms_Bang_Teens_51.008?pid=1538548797
https://data.hu/get/14203358/Moms_Bang_Teens_51.009?pid=1538548797
https://data.hu/get/14203349/Moms_Bang_Teens_51.010?pid=1538548797
https://data.hu/get/14203357/Moms_Bang_Teens_51.011?pid=1538548797
https://data.hu/get/14203352/Moms_Bang_Teens_51.012?pid=1538548797
https://data.hu/get/14203355/Moms_Bang_Teens_51.013?pid=1538548797
https://data.hu/get/14203347/Moms_Bang_Teens_51.014?pid=1538548797
https://data.hu/get/14203356/Moms_Bang_Teens_51.015?pid=1538548797
https://data.hu/get/14203351/Moms_Bang_Teens_51.crc?pid=1538548797
https://data.hu/get/14204095/Moms_Bang_Teens_51.crc?pid=1538548797

datapremium.png

Code:
https://data.hu/get/14204094/Moms_Bang_Teens_51.001?pid=1538548797
https://data.hu/get/14204093/Moms_Bang_Teens_51.002?pid=1538548797
https://data.hu/get/14204092/Moms_Bang_Teens_51.003?pid=1538548797
https://data.hu/get/14204095/Moms_Bang_Teens_51.crc?pid=1538548797

online.png

Code:
https://videa.hu/videok/felnott/moms-bang-teens-51-blowjob-brunette-hetero-yZjOIbook6zgnAkL
 
Top