XXX Videók Interview Video Record #03 - Frances

tkt55

Adminisztrátor
Tag
Csatlakozás
2015.07.17.
Üzenetek
2,256
Reakció pontszám
0
Pontok
36
Hely
Barcs
Webhely
androware.hu
Offline
Interview Video Record #03 - Frances



Cast & Stars:



General
Complete name : Interview Video Record #03 - Frances.mp4
Format : MPEG-4
Format profile : Base Media
Codec ID : isom (isom/iso2/avc1/mp41)
File size : 401 MiB
Duration : 43 min 46 s
Overall bit rate : 1 281 kb/s
Frame rate : 25.000 FPS
Writing application : Lavf56.40.101

Video
ID : 1
Format : AVC
Format/Info : Advanced Video Codec
Format profile : High@L3.1
Format settings : CABAC / 4 Ref Frames
Format settings, CABAC : Yes
Format settings, Reference fra : 4 frames
Codec ID : avc1
Codec ID/Info : Advanced Video Coding
Duration : 43 min 46 s
Bit rate : 1 130 kb/s
Width : 1 280 pixels
Height : 720 pixels
Display aspect ratio : 16:9
Frame rate mode : Constant
Frame rate : 25.000 FPS
Color space : YUV
Chroma subsampling : 4:2:0
Bit depth : 8 bits
Scan type : Progressive
Bits/(Pixel*Frame) : 0.049
Stream size : 354 MiB (88%)
Writing library : x264 core 142 r2495 6a301b6
Encoding settings : cabac=1 / ref=3 / deblock=1:0:0 / analyse=0x3:0x113 / me=hex / subme=7 / psy=1 / psy_rd=1.00:0.00 / mixed_ref=1 / me_range=16 / chroma_me=1 / trellis=0 / 8x8dct=1 / cqm=0 / deadzone=21,11 / fast_pskip=1 / chroma_qp_offset=-2 / threads=24 / lookahead_threads=4 / sliced_threads=0 / nr=0 / decimate=1 / interlaced=0 / bluray_compat=0 / constrained_intra=0 / bframes=8 / b_pyramid=2 / b_adapt=1 / b_bias=0 / direct=1 / weightb=1 / open_gop=0 / weightp=2 / keyint=50 / keyint_min=5 / scenecut=40 / intra_refresh=0 / rc_lookahead=40 / rc=crf / mbtree=1 / crf=25.0 / qcomp=0.60 / qpmin=0 / qpmax=69 / qpstep=4 / ip_ratio=1.40 / aq=1:1.00
Codec configuration box : avcC

Audio
ID : 2
Format : AAC LC
Format/Info : Advanced Audio Codec Low Complexity
Codec ID : mp4a-40-2
Duration : 43 min 46 s
Bit rate mode : Constant
Bit rate : 144 kb/s
Channel(s) : 2 channels
Channel layout : L R
Sampling rate : 44.1 kHz
Frame rate : 43.066 FPS (1024 SPF)
Compression mode : Lossy
Stream size : 45.2 MiB (11%)
Default : Yes
Alternate group : 1



datafree.png

Code:
https://data.hu/get/14211378/Interview_Video_Record_03_-_Frances.001?pid=1538548797
https://data.hu/get/14211376/Interview_Video_Record_03_-_Frances.002?pid=1538548797
https://data.hu/get/14211373/Interview_Video_Record_03_-_Frances.003?pid=1538548797
https://data.hu/get/14211377/Interview_Video_Record_03_-_Frances.004?pid=1538548797
https://data.hu/get/14211372/Interview_Video_Record_03_-_Frances.005?pid=1538548797
https://data.hu/get/14211374/Interview_Video_Record_03_-_Frances.crc?pid=1538548797

datapremium.png

Code:
https://data.hu/get/14211375/Interview_Video_Record_03_-_Frances.zip?pid=1538548797

online.png

Code:
https://videa.hu/videok/felnott/interview-video-record-03-frances-blowjob-brunette-cowgirl-DehKVpbCuZpnXaZZ
 
Top