XXX Videók Interview Video Record #01 – Michell Lee

tkt55

Adminisztrátor
Tag
Csatlakozás
2015.07.17.
Üzenetek
2,256
Reakció pontszám
0
Pontok
36
Hely
Barcs
Webhely
androware.hu
Offline
Interview Video Record #01 – Michell Lee[/SIZE]



Cast & Stars:


General
Complete name : Interview Video Record #01 – Michell Lee.mp4
Format : MPEG-4
Format profile : Base Media
Codec ID : isom (isom/iso2/avc1/mp41)
File size : 191 MiB
Duration : 47 min 11 s
Overall bit rate mode : Variable
Overall bit rate : 566 kb/s
Frame rate : 25.000 FPS
Writing application : Lavf56.40.101

Video
ID : 1
Format : AVC
Format/Info : Advanced Video Codec
Format profile : High@L3.1
Format settings : CABAC / 4 Ref Frames
Format settings, CABAC : Yes
Format settings, Reference fra : 4 frames
Codec ID : avc1
Codec ID/Info : Advanced Video Coding
Duration : 47 min 11 s
Bit rate : 417 kb/s
Width : 640 pixels
Height : 360 pixels
Display aspect ratio : 16:9
Frame rate mode : Constant
Frame rate : 25.000 FPS
Color space : YUV
Chroma subsampling : 4:2:0
Bit depth : 8 bits
Scan type : Progressive
Bits/(Pixel*Frame) : 0.072
Stream size : 141 MiB (74%)
Writing library : x264 core 142 r2495 6a301b6
Encoding settings : cabac=1 / ref=3 / deblock=1:0:0 / analyse=0x3:0x113 / me=hex / subme=7 / psy=1 / psy_rd=1.00:0.00 / mixed_ref=1 / me_range=16 / chroma_me=1 / trellis=1 / 8x8dct=1 / cqm=0 / deadzone=21,11 / fast_pskip=1 / chroma_qp_offset=-2 / threads=24 / lookahead_threads=2 / sliced_threads=0 / nr=0 / decimate=1 / interlaced=0 / bluray_compat=0 / constrained_intra=0 / bframes=3 / b_pyramid=2 / b_adapt=1 / b_bias=0 / direct=1 / weightb=1 / open_gop=0 / weightp=2 / keyint=250 / keyint_min=25 / scenecut=40 / intra_refresh=0 / rc_lookahead=40 / rc=crf / mbtree=1 / crf=20.0 / qcomp=0.60 / qpmin=0 / qpmax=69 / qpstep=4 / vbv_maxrate=700 / vbv_bufsize=1200 / crf_max=0.0 / nal_hrd=none / filler=0 / ip_ratio=1.40 / aq=1:1.00
Color range : Limited
Color primaries : BT.709
Transfer characteristics : BT.709
Matrix coefficients : BT.709
Codec configuration box : avcC

Audio
ID : 2
Format : AAC LC
Format/Info : Advanced Audio Codec Low Complexity
Codec ID : mp4a-40-2
Duration : 47 min 11 s
Bit rate mode : Variable
Bit rate : 144 kb/s
Maximum bit rate : 700 kb/s
Channel(s) : 2 channels
Channel layout : L R
Sampling rate : 44.1 kHz
Frame rate : 43.066 FPS (1024 SPF)
Compression mode : Lossy
Stream size : 48.1 MiB (25%)
Default : Yes
Alternate group : 1


datafree.png

Code:
https://data.hu/get/14211334/Interview_Video_Record_01__Michell_Lee.001?pid=1538548797
https://data.hu/get/14211339/Interview_Video_Record_01__Michell_Lee.002?pid=1538548797
https://data.hu/get/14211337/Interview_Video_Record_01__Michell_Lee.003?pid=1538548797
https://data.hu/get/14211338/Interview_Video_Record_01__Michell_Lee.004?pid=1538548797
https://data.hu/get/14211336/Interview_Video_Record_01__Michell_Lee.crc?pid=1538548797

datapremium.png

Code:
https://data.hu/get/14211335/Interview_Video_Record_01__Michell_Lee.zip?pid=1538548797

online.png

Code:
https://videa.hu/videok/felnott/interview-video-record-01-michell-blowjob-brunette-hetero-hPvVIQNLucNQIvQ2
 
Top