XXX Videók Fucking My Step Sisters - Sydney Cole

tkt55

Adminisztrátor
Tag
Adminisztrátor
Csatlakozás
2015.07.17.
Üzenetek
2,220
Reakció pontszám
0
Pontok
36
Hely
Barcs
Webhely
androware.hu
Offline
Fucking My Step Sisters - Sydney Cole



Featuring:



General
Complete name : Fucking My Step Sisters - Sydney Cole.mp4
Format : MPEG-4
Format profile : Base Media
Codec ID : isom (isom/iso2/avc1/mp41)
File size : 194 MiB
Duration : 19 min 53 s
Overall bit rate : 1 361 kb/s
Frame rate : 29.970 FPS
Writing application : Lavf58.29.100

Video
ID : 1
Format : AVC
Format/Info : Advanced Video Codec
Format profile : High@L3.1
Format settings : CABAC / 4 Ref Frames
Format settings, CABAC : Yes
Format settings, Reference fra : 4 frames
Format settings, GOP : M=1, N=60
Codec ID : avc1
Codec ID/Info : Advanced Video Coding
Duration : 19 min 53 s
Bit rate : 1 225 kb/s
Width : 852 pixels
Height : 480 pixels
Display aspect ratio : 16:9
Frame rate mode : Variable
Frame rate : 29.970 FPS
Color space : YUV
Chroma subsampling : 4:2:0
Bit depth : 8 bits
Scan type : Progressive
Bits/(Pixel*Frame) : 0.100
Stream size : 174 MiB (90%)
Tagged date : 2020-07-06 05:59:22 UTC
Codec configuration box : avcC

Audio
ID : 2
Format : AAC LC
Format/Info : Advanced Audio Codec Low Complexity
Codec ID : mp4a-40-2
Duration : 19 min 53 s
Bit rate mode : Constant
Bit rate : 132 kb/s
Channel(s) : 2 channels
Channel layout : L R
Sampling rate : 44.1 kHz
Frame rate : 43.066 FPS (1024 SPF)
Compression mode : Lossy
Stream size : 18.6 MiB (10%)
Default : Yes
Alternate group : 1
Tagged date : 2020-07-06 05:59:22 UTC



datafree.png

Code:
https://data.hu/get/14247329/Fucking_My_Step_Sisters_-_Sydney_Cole.zip?pid=1538548797

online.png

Code:
https://videa.hu/videok/felnott/fucking-my-step-sisters-sydney-brattysisters-teen-sv1xCQtyBw82P6YK
 
Utoljára szerkesztve:
Top