XXX Videók At Your Service Sis - Nina Nirvana

tkt55

Adminisztrátor
Tag
Adminisztrátor
Csatlakozás
2015.07.17.
Üzenetek
2,220
Reakció pontszám
0
Pontok
36
Hely
Barcs
Webhely
androware.hu
Offline
At Your Service Sis - Nina Nirvana



Cast & Stars:




General
Complete name : At Your Service Sis - Nina Nirvana.mp4
Format : MPEG-4
Format profile : Base Media
Codec ID : isom (isom/iso2/avc1/mp41)
File size : 112 MiB
Duration : 19 min 1 s
Overall bit rate : 822 kb/s
Frame rate : 30.000 FPS
Writing application : Lavf58.51.100

Video
ID : 1
Format : AVC
Format/Info : Advanced Video Codec
Format profile : Main@L3.1
Format settings : CABAC / 4 Ref Frames
Format settings, CABAC : Yes
Format settings, Reference fra : 4 frames
Codec ID : avc1
Codec ID/Info : Advanced Video Coding
Duration : 19 min 1 s
Bit rate : 720 kb/s
Width : 720 pixels
Height : 480 pixels
Display aspect ratio : 16:9
Original display aspect ratio : 16:9
Frame rate mode : Constant
Frame rate : 30.000 FPS
Color space : YUV
Chroma subsampling : 4:2:0
Bit depth : 8 bits
Scan type : Progressive
Bits/(Pixel*Frame) : 0.069
Stream size : 97.9 MiB (88%)
Color range : Limited
Color primaries : BT.709
Transfer characteristics : BT.709
Matrix coefficients : BT.709
Codec configuration box : avcC

Audio
ID : 2
Format : AAC LC
Format/Info : Advanced Audio Codec Low Complexity
Codec ID : mp4a-40-2
Duration : 19 min 1 s
Bit rate mode : Constant
Bit rate : 96.0 kb/s
Channel(s) : 2 channels
Channel layout : L R
Sampling rate : 24.0 kHz
Frame rate : 23.438 FPS (1024 SPF)
Compression mode : Lossy
Stream size : 13.0 MiB (12%)
Default : Yes
Alternate group : 1


datafree.png

Code:
https://data.hu/get/14247288/At_Your_Service_Sis_-_Nina_Nirvana.zip?pid=1538548797

online.png

Code:
https://videa.hu/videok/felnott/at-your-service-sis-nina-brattysisters-teen-qTXPaSiBzdG1suZg
 
Top