XXX Filmek Anita a kórház szélen

tkt55

Adminisztrátor
Tag
Csatlakozás
2015.07.17.
Üzenetek
2,256
Reakció pontszám
0
Pontok
36
Hely
Barcs
Webhely
androware.hu
Offline
Anita a kórház szélen XXX.VHS-MP4 Magyar szinkronos teljes szexfilm



General
Complete name : Anita a kórház szélen - Magyar szinkronos teljes szexfilm.mp4
Format : MPEG-4
Format profile : Base Media
Codec ID : isom (isom/iso2/avc1/mp41)
File size : 595 MiB
Duration : 1 h 29 min
Overall bit rate : 928 kb/s
Frame rate : 25.000 FPS
Writing application : Lavf58.51.100

Video
ID : 1
Format : AVC
Format/Info : Advanced Video Codec
Format profile : High@L3
Format settings : CABAC / 4 Ref Frames
Format settings, CABAC : Yes
Format settings, Reference : 4 frames
Codec ID : avc1
Codec ID/Info : Advanced Video Coding
Duration : 1 h 29 min
Source duration : 1 h 29 min
Bit rate : 754 kb/s
Width : 720 pixels
Height : 576 pixels
Display aspect ratio : 5:4
Frame rate mode : Constant
Frame rate : 25.000 FPS
Standard : PAL
Color space : YUV
Chroma subsampling : 4:2:0
Bit depth : 8 bits
Scan type : Progressive
Bits/(Pixel*Frame) : 0.073
Stream size : 483 MiB (81%)
Source stream size : 509 MiB (85%)
Writing library : x264 core 148 r2795 aaa9aa8
Encoding settings : cabac=1 / ref=3 / deblock=1:0:0 / analyse=0x3:0x113 / me=hex / subme=7 / psy=1 / psy_rd=1.00:0.00 / mixed_ref=1 / me_range=16 / chroma_me=1 / trellis=0 / 8x8dct=1 / cqm=0 / deadzone=21,11 / fast_pskip=1 / chroma_qp_offset=-2 / threads=18 / lookahead_threads=3 / sliced_threads=0 / nr=0 / decimate=1 / interlaced=0 / bluray_compat=0 / constrained_intra=0 / bframes=8 / b_pyramid=2 / b_adapt=1 / b_bias=0 / direct=1 / weightb=1 / open_gop=0 / weightp=2 / keyint=50 / keyint_min=5 / scenecut=40 / intra_refresh=0 / rc_lookahead=40 / rc=crf / mbtree=1 / crf=25.0 / qcomp=0.60 / qpmin=0 / qpmax=69 / qpstep=4 / ip_ratio=1.40 / aq=1:1.00
Language : English
mdhd_Duration : 5378160
Codec configuration box : avcC

Audio
ID : 2
Format : AAC LC
Format/Info : Advanced Audio Codec Low Complexity
Codec ID : mp4a-40-2
Duration : 1 h 29 min
Duration_LastFrame : -15 ms
Bit rate mode : Constant
Bit rate : 129 kb/s
Channel(s) : 2 channels
Channel layout : L R
Sampling rate : 44.1 kHz
Frame rate : 43.066 FPS (1024 SPF)
Compression mode : Lossy
Stream size : 82.4 MiB (14%)
Default : Yes
Alternate group : 1


datafree.png

Code:
https://data.hu/get/13912241/Anita_a_korhaz_szelen_-_Magyar_szinkronos_teljes_szexfilm.001?pid=1538548797
https://data.hu/get/13912242/Anita_a_korhaz_szelen_-_Magyar_szinkronos_teljes_szexfilm.002?pid=1538548797
https://data.hu/get/13912244/Anita_a_korhaz_szelen_-_Magyar_szinkronos_teljes_szexfilm.003?pid=1538548797
https://data.hu/get/13912243/Anita_a_korhaz_szelen_-_Magyar_szinkronos_teljes_szexfilm.crc?pid=1538548797

datapremium.png

Code:
https://data.hu/get/13912245/Anita_a_korhaz_szelen_-_Magyar_szinkronos_teljes_szexfilm.zip?pid=1538548797

online.png

Code:
https://videa.hu/videok/felnott/anita-a-korhaz-szelen-hetero-magyar-vintage-XdWWP9UxccCI9pmD
 
Top